  0
SECTION
  2
HEADER
  9
$ACADVER
  1
AC1015
  9
$ACADMAINTVER
 70
     6
  9
$DWGCODEPAGE
  3
ANSI_1252
  9
$INSBASE
 10
0.0
 20
0.0
 30
0.0
  9
$EXTMIN
 10
0.0
 20
0.0
 30
0.0
  9
$EXTMAX
 10
297.0000000000001
 20
210.0000000000005
 30
0.0
  9
$LIMMIN
 10
0.0
 20
0.0
  9
$LIMMAX
 10
12.0
 20
9.0
  9
$ORTHOMODE
 70
     0
  9
$REGENMODE
 70
     1
  9
$FILLMODE
 70
     1
  9
$QTEXTMODE
 70
     0
  9
$MIRRTEXT
 70
     1
  9
$LTSCALE
 40
1.0
  9
$ATTMODE
 70
     1
  9
$TEXTSIZE
 40
0.2
  9
$TRACEWID
 40
0.05
  9
$TEXTSTYLE
  7
Standard
  9
$CLAYER
  8
0
  9
$CELTYPE
  6
ByLayer
  9
$CECOLOR
 62
   256
  9
$CELTSCALE
 40
1.0
  9
$DISPSILH
 70
     0
  9
$DIMSCALE
 40
1.0
  9
$DIMASZ
 40
0.18
  9
$DIMEXO
 40
0.0625
  9
$DIMDLI
 40
0.38
  9
$DIMRND
 40
0.0
  9
$DIMDLE
 40
0.0
  9
$DIMEXE
 40
0.18
  9
$DIMTP
 40
0.0
  9
$DIMTM
 40
0.0
  9
$DIMTXT
 40
0.18
  9
$DIMCEN
 40
0.09
  9
$DIMTSZ
 40
0.0
  9
$DIMTOL
 70
     0
  9
$DIMLIM
 70
     0
  9
$DIMTIH
 70
     1
  9
$DIMTOH
 70
     1
  9
$DIMSE1
 70
     0
  9
$DIMSE2
 70
     0
  9
$DIMTAD
 70
     0
  9
$DIMZIN
 70
     0
  9
$DIMBLK
  1

  9
$DIMASO
 70
     1
  9
$DIMSHO
 70
     1
  9
$DIMPOST
  1

  9
$DIMAPOST
  1

  9
$DIMALT
 70
     0
  9
$DIMALTD
 70
     2
  9
$DIMALTF
 40
25.4
  9
$DIMLFAC
 40
1.0
  9
$DIMTOFL
 70
     0
  9
$DIMTVP
 40
0.0
  9
$DIMTIX
 70
     0
  9
$DIMSOXD
 70
     0
  9
$DIMSAH
 70
     0
  9
$DIMBLK1
  1

  9
$DIMBLK2
  1

  9
$DIMSTYLE
  2
Standard
  9
$DIMCLRD
 70
     0
  9
$DIMCLRE
 70
     0
  9
$DIMCLRT
 70
     0
  9
$DIMTFAC
 40
1.0
  9
$DIMGAP
 40
0.09
  9
$DIMJUST
 70
     0
  9
$DIMSD1
 70
     0
  9
$DIMSD2
 70
     0
  9
$DIMTOLJ
 70
     1
  9
$DIMTZIN
 70
     0
  9
$DIMALTZ
 70
     0
  9
$DIMALTTZ
 70
     0
  9
$DIMUPT
 70
     0
  9
$DIMDEC
 70
     4
  9
$DIMTDEC
 70
     4
  9
$DIMALTU
 70
     2
  9
$DIMALTTD
 70
     2
  9
$DIMTXSTY
  7
Standard
  9
$DIMAUNIT
 70
     0
  9
$DIMADEC
 70
     0
  9
$DIMALTRND
 40
0.0
  9
$DIMAZIN
 70
     0
  9
$DIMDSEP
 70
    46
  9
$DIMATFIT
 70
     3
  9
$DIMFRAC
 70
     0
  9
$DIMLDRBLK
  1

  9
$DIMLUNIT
 70
     2
  9
$DIMLWD
 70
    -2
  9
$DIMLWE
 70
    -2
  9
$DIMTMOVE
 70
     0
  9
$LUNITS
 70
     2
  9
$LUPREC
 70
     4
  9
$SKETCHINC
 40
0.1
  9
$FILLETRAD
 40
0.5
  9
$AUNITS
 70
     0
  9
$AUPREC
 70
     0
  9
$MENU
  1
.
  9
$ELEVATION
 40
0.0
  9
$PELEVATION
 40
0.0
  9
$THICKNESS
 40
0.0
  9
$LIMCHECK
 70
     0
  9
$CHAMFERA
 40
0.5
  9
$CHAMFERB
 40
0.5
  9
$CHAMFERC
 40
1.0
  9
$CHAMFERD
 40
0.0
  9
$SKPOLY
 70
     0
  9
$TDCREATE
 40
2456997.60658853
  9
$TDUCREATE
 40
2456997.564921863
  9
$TDUPDATE
 40
2456997.606588715
  9
$TDUUPDATE
 40
2456997.564922049
  9
$TDINDWG
 40
0.0000000116
  9
$TDUSRTIMER
 40
0.0000000116
  9
$USRTIMER
 70
     1
  9
$ANGBASE
 50
0.0
  9
$ANGDIR
 70
     0
  9
$PDMODE
 70
     0
  9
$PDSIZE
 40
0.0
  9
$PLINEWID
 40
0.0
  9
$SPLFRAME
 70
     0
  9
$SPLINETYPE
 70
     6
  9
$SPLINESEGS
 70
     8
  9
$HANDSEED
  5
274
  9
$SURFTAB1
 70
     6
  9
$SURFTAB2
 70
     6
  9
$SURFTYPE
 70
     6
  9
$SURFU
 70
     6
  9
$SURFV
 70
     6
  9
$UCSBASE
  2

  9
$UCSNAME
  2

  9
$UCSORG
 10
0.0
 20
0.0
 30
0.0
  9
$UCSXDIR
 10
1.0
 20
0.0
 30
0.0
  9
$UCSYDIR
 10
0.0
 20
1.0
 30
0.0
  9
$UCSORTHOREF
  2

  9
$UCSORTHOVIEW
 70
     0
  9
$UCSORGTOP
 10
0.0
 20
0.0
 30
0.0
  9
$UCSORGBOTTOM
 10
0.0
 20
0.0
 30
0.0
  9
$UCSORGLEFT
 10
0.0
 20
0.0
 30
0.0
  9
$UCSORGRIGHT
 10
0.0
 20
0.0
 30
0.0
  9
$UCSORGFRONT
 10
0.0
 20
0.0
 30
0.0
  9
$UCSORGBACK
 10
0.0
 20
0.0
 30
0.0
  9
$PUCSBASE
  2

  9
$PUCSNAME
  2

  9
$PUCSORG
 10
0.0
 20
0.0
 30
0.0
  9
$PUCSXDIR
 10
1.0
 20
0.0
 30
0.0
  9
$PUCSYDIR
 10
0.0
 20
1.0
 30
0.0
  9
$PUCSORTHOREF
  2

  9
$PUCSORTHOVIEW
 70
     0
  9
$PUCSORGTOP
 10
0.0
 20
0.0
 30
0.0
  9
$PUCSORGBOTTOM
 10
0.0
 20
0.0
 30
0.0
  9
$PUCSORGLEFT
 10
0.0
 20
0.0
 30
0.0
  9
$PUCSORGRIGHT
 10
0.0
 20
0.0
 30
0.0
  9
$PUCSORGFRONT
 10
0.0
 20
0.0
 30
0.0
  9
$PUCSORGBACK
 10
0.0
 20
0.0
 30
0.0
  9
$USERI1
 70
     0
  9
$USERI2
 70
     0
  9
$USERI3
 70
     0
  9
$USERI4
 70
     0
  9
$USERI5
 70
     0
  9
$USERR1
 40
18.1
  9
$USERR2
 40
0.0
  9
$USERR3
 40
0.0
  9
$USERR4
 40
0.0
  9
$USERR5
 40
0.0
  9
$WORLDVIEW
 70
     1
  9
$SHADEDGE
 70
     3
  9
$SHADEDIF
 70
    70
  9
$TILEMODE
 70
     1
  9
$MAXACTVP
 70
    64
  9
$PINSBASE
 10
0.0
 20
0.0
 30
0.0
  9
$PLIMCHECK
 70
     0
  9
$PEXTMIN
 10
1.00000000000000E+20
 20
1.00000000000000E+20
 30
1.00000000000000E+20
  9
$PEXTMAX
 10
-1.00000000000000E+20
 20
-1.00000000000000E+20
 30
-1.00000000000000E+20
  9
$PLIMMIN
 10
0.0
 20
0.0
  9
$PLIMMAX
 10
12.0
 20
9.0
  9
$UNITMODE
 70
     0
  9
$VISRETAIN
 70
     1
  9
$PLINEGEN
 70
     0
  9
$PSLTSCALE
 70
     1
  9
$TREEDEPTH
 70
  3020
  9
$CMLSTYLE
  2
Standard
  9
$CMLJUST
 70
     0
  9
$CMLSCALE
 40
1.0
  9
$PROXYGRAPHICS
 70
     1
  9
$MEASUREMENT
 70
     1
  9
$CELWEIGHT
370
    -1
  9
$ENDCAPS
280
     0
  9
$JOINSTYLE
280
     0
  9
$LWDISPLAY
290
     0
  9
$INSUNITS
 70
     4
  9
$HYPERLINKBASE
  1

  9
$STYLESHEET
  1

  9
$XEDIT
290
     1
  9
$CEPSNTYPE
380
     0
  9
$PSTYLEMODE
290
     1
  9
$FINGERPRINTGUID
  2
{5AC85F10-AFCB-4C10-A44D-28498F274B66}
  9
$VERSIONGUID
  2
{FAEB1C32-E019-11D5-929B-00C0DF256EC4}
  9
$EXTNAMES
290
     1
  9
$PSVPSCALE
 40
0.0
  9
$OLESTARTUP
290
     0
  0
ENDSEC
  0
SECTION
  2
CLASSES
  0
CLASS
  1
ACDBDICTIONARYWDFLT
  2
AcDbDictionaryWithDefault
  3
ObjectDBX Classes
 90
        0
280
     0
281
     0
  0
CLASS
  1
VISUALSTYLE
  2
AcDbVisualStyle
  3
ObjectDBX Classes
 90
     4095
280
     0
281
     0
  0
CLASS
  1
MATERIAL
  2
AcDbMaterial
  3
ObjectDBX Classes
 90
     1153
280
     0
281
     0
  0
CLASS
  1
DICTIONARYVAR
  2
AcDbDictionaryVar
  3
ObjectDBX Classes
 90
        0
280
     0
281
     0
  0
CLASS
  1
ACDBPLACEHOLDER
  2
AcDbPlaceHolder
  3
ObjectDBX Classes
 90
        0
280
     0
281
     0
  0
CLASS
  1
LAYOUT
  2
AcDbLayout
  3
ObjectDBX Classes
 90
        0
280
     0
281
     0
  0
ENDSEC
  0
SECTION
  2
TABLES
  0
TABLE
  2
VPORT
  5
8
330
0
100
AcDbSymbolTable
 70
     1
  0
VPORT
  5
29
330
8
100
AcDbSymbolTableRecord
100
AcDbViewportTableRecord
  2
*Active
 70
     0
 10
0.0
 20
0.0
 11
1.0
 21
1.0
 12
148.5000000000001
 22
105.0000000000003
 13
0.0
 23
0.0
 14
0.5
 24
0.5
 15
0.5
 25
0.5
 16
0.0
 26
0.0
 36
1.0
 17
0.0
 27
0.0
 37
0.0
 40
231.0000000000006
 41
1.60267857142857
 42
50.0
 43
0.0
 44
0.0
 50
0.0
 51
0.0
 71
     0
 72
   100
 73
     1
 74
     3
 75
     0
 76
     0
 77
     0
 78
     0
281
     0
 65
     1
110
0.0
120
0.0
130
0.0
111
1.0
121
0.0
131
0.0
112
0.0
122
1.0
132
0.0
 79
     0
146
0.0
  0
ENDTAB
  0
TABLE
  2
LTYPE
  5
5
330
0
100
AcDbSymbolTable
 70
     8
  0
LTYPE
  5
14
330
5
100
AcDbSymbolTableRecord
100
AcDbLinetypeTableRecord
  2
ByBlock
 70
     0
  3

 72
    65
 73
     0
 40
0.0
  0
LTYPE
  5
15
330
5
100
AcDbSymbolTableRecord
100
AcDbLinetypeTableRecord
  2
ByLayer
 70
     0
  3

 72
    65
 73
     0
 40
0.0
  0
LTYPE
  5
16
330
5
100
AcDbSymbolTableRecord
100
AcDbLinetypeTableRecord
  2
Continuous
 70
     0
  3
Solid line
 72
    65
 73
     0
 40
0.0
  0
LTYPE
  5
3F
330
5
100
AcDbSymbolTableRecord
100
AcDbLinetypeTableRecord
  2
DASHED
 70
     0
  3
Dashed
 72
    65
 73
     2
 40
15.0
 49
7.0
 74
     0
 49
-8.0
 74
     0
  0
LTYPE
  5
40
330
5
100
AcDbSymbolTableRecord
100
AcDbLinetypeTableRecord
  2
DOTTED
 70
     0
  3
Dotted
 72
    65
 73
     2
 40
1.0
 49
0.0
 74
     0
 49
-1.0
 74
     0
  0
LTYPE
  5
41
330
5
100
AcDbSymbolTableRecord
100
AcDbLinetypeTableRecord
  2
DOT_CENTER
 70
     0
  3
Dot_Center
 72
    65
 73
     4
 40
14.0
 49
12.0
 74
     0
 49
-1.0
 74
     0
 49
0.0
 74
     0
 49
-1.0
 74
     0
  0
LTYPE
  5
42
330
5
100
AcDbSymbolTableRecord
100
AcDbLinetypeTableRecord
  2
LONG_DASHED
 70
     0
  3
Long_Dashed
 72
    65
 73
     2
 40
15.0
 49
10.0
 74
     0
 49
-5.0
 74
     0
  0
LTYPE
  5
43
330
5
100
AcDbSymbolTableRecord
100
AcDbLinetypeTableRecord
  2
DASH_CENTER
 70
     0
  3
Dash_Center
 72
    65
 73
     4
 40
14.0
 49
11.0
 74
     0
 49
-1.0
 74
     0
 49
1.0
 74
     0
 49
-1.0
 74
     0
  0
LTYPE
  5
44
330
5
100
AcDbSymbolTableRecord
100
AcDbLinetypeTableRecord
  2
PHANTOM
 70
     0
  3
Phantom
 72
    65
 73
     6
 40
13.0
 49
10.0
 74
     0
 49
-1.0
 74
     0
 49
0.0
 74
     0
 49
-1.0
 74
     0
 49
0.0
 74
     0
 49
-1.0
 74
     0
  0
LTYPE
  5
45
330
5
100
AcDbSymbolTableRecord
100
AcDbLinetypeTableRecord
  2
CENTER_DASH_DASH
 70
     0
  3
Center_Dash_Dash
 72
    65
 73
     6
 40
14.0
 49
9.0
 74
     0
 49
-1.0
 74
     0
 49
1.0
 74
     0
 49
-1.0
 74
     0
 49
1.0
 74
     0
 49
-1.0
 74
     0
  0
ENDTAB
  0
TABLE
  2
LAYER
  5
2
330
0
100
AcDbSymbolTable
 70
     3
  0
LAYER
  5
10
330
2
100
AcDbSymbolTableRecord
100
AcDbLayerTableRecord
  2
0
 70
     0
 62
     7
  6
Continuous
370
    -3
390
F
  0
LAYER
  5
46
330
2
100
AcDbSymbolTableRecord
100
AcDbLayerTableRecord
  2
1
 70
     0
 62
     7
  6
Continuous
370
    -3
390
F
  0
LAYER
  5
47
330
2
100
AcDbSymbolTableRecord
100
AcDbLayerTableRecord
  2
Sichtbare_Kanten_TC_020513_DIN_
 70
     0
 62
     7
  6
Continuous
370
    -3
390
F
  0
ENDTAB
  0
TABLE
  2
STYLE
  5
3
330
0
100
AcDbSymbolTable
 70
     5
  0
STYLE
  5
11
330
3
100
AcDbSymbolTableRecord
100
AcDbTextStyleTableRecord
  2
Standard
 70
     0
 40
0.0
 41
1.0
 50
0.0
 71
     0
 42
0.2
  3
txt
  4

  0
STYLE
  5
9C
330
3
100
AcDbSymbolTableRecord
100
AcDbTextStyleTableRecord
  2
CONVERTER_11
 70
     0
 40
0.0
 41
0.9
 50
0.0
 71
     0
 42
0.2
  3
txt.shx
  4

  0
STYLE
  5
A1
330
3
100
AcDbSymbolTableRecord
100
AcDbTextStyleTableRecord
  2
CONVERTER_12
 70
     0
 40
0.0
 41
1.035
 50
0.0
 71
     0
 42
0.2
  3
txt.shx
  4

  0
STYLE
  5
A4
330
3
100
AcDbSymbolTableRecord
100
AcDbTextStyleTableRecord
  2
CONVERTER_13
 70
     0
 40
0.0
 41
0.81
 50
0.0
 71
     0
 42
0.2
  3
txt.shx
  4

  0
STYLE
  5
222
330
3
100
AcDbSymbolTableRecord
100
AcDbTextStyleTableRecord
  2
CONVERTER_14
 70
     0
 40
0.0
 41
0.95
 50
0.0
 71
     0
 42
0.2
  3
simplex.shx
  4

  0
ENDTAB
  0
TABLE
  2
VIEW
  5
6
330
0
100
AcDbSymbolTable
 70
     0
  0
ENDTAB
  0
TABLE
  2
UCS
  5
7
330
0
100
AcDbSymbolTable
 70
     0
  0
ENDTAB
  0
TABLE
  2
APPID
  5
9
330
0
100
AcDbSymbolTable
 70
     1
  0
APPID
  5
12
330
9
100
AcDbSymbolTableRecord
100
AcDbRegAppTableRecord
  2
ACAD
 70
     0
  0
ENDTAB
  0
TABLE
  2
DIMSTYLE
  5
A
330
0
100
AcDbSymbolTable
 70
     5
100
AcDbDimStyleTable
  0
DIMSTYLE
105
27
330
A
100
AcDbSymbolTableRecord
100
AcDbDimStyleTableRecord
  2
Standard
 70
     0
178
     0
340
11
  0
DIMSTYLE
105
226
102
{ACAD_REACTORS
330
227
102
}
330
A
100
AcDbSymbolTableRecord
100
AcDbDimStyleTableRecord
  2
ME10_DIM_10
 70
     0
 41
3.0
 42
0.5
 44
1.0
 73
     0
 74
     0
 77
     1
 78
    12
140
3.0
147
2.0
172
     1
173
     1
174
     1
175
     1
176
     2
177
     2
271
     2
178
     4
271
     2
340
222
  0
DIMSTYLE
105
231
102
{ACAD_REACTORS
330
232
102
}
330
A
100
AcDbSymbolTableRecord
100
AcDbDimStyleTableRecord
  2
ME10_DIM_11
 70
     0
 41
3.0
 42
0.5
 44
1.0
 73
     0
 74
     0
 77
     1
 78
    12
140
3.0
147
2.0
172
     1
173
     1
174
     1
175
     1
176
     2
177
     2
271
     2
178
     4
271
     2
340
222
  0
DIMSTYLE
105
23C
102
{ACAD_REACTORS
330
23D
102
}
330
A
100
AcDbSymbolTableRecord
100
AcDbDimStyleTableRecord
  2
ME10_DIM_12
 70
     0
 41
3.0
 42
0.5
 44
1.0
 73
     0
 74
     0
 77
     1
 78
    12
140
3.0
147
2.0
172
     1
173
     1
174
     1
175
     1
176
     2
177
     2
271
     2
178
     4
271
     2
340
222
  0
DIMSTYLE
105
247
102
{ACAD_REACTORS
330
248
102
}
330
A
100
AcDbSymbolTableRecord
100
AcDbDimStyleTableRecord
  2
ME10_DIM_13
 70
     0
 41
3.0
 42
0.5
 44
1.0
 73
     0
 74
     0
 77
     1
 78
     8
140
3.0
147
2.0
172
     1
173
     1
174
     1
175
     1
176
     2
177
     2
271
     2
178
     4
271
     2
340
222
  0
ENDTAB
  0
TABLE
  2
BLOCK_RECORD
  5
1
330
0
100
AcDbSymbolTable
 70
     7
  0
BLOCK_RECORD
  5
1F
330
1
100
AcDbSymbolTableRecord
100
AcDbBlockTableRecord
  2
*Model_Space
340
22
  0
BLOCK_RECORD
  5
1B
330
1
100
AcDbSymbolTableRecord
100
AcDbBlockTableRecord
  2
*Paper_Space
340
1E
  0
BLOCK_RECORD
  5
23
330
1
100
AcDbSymbolTableRecord
100
AcDbBlockTableRecord
  2
*Paper_Space0
340
26
  0
BLOCK_RECORD
  5
48
330
1
100
AcDbSymbolTableRecord
100
AcDbBlockTableRecord
  2
_formato_A4
340
0
102
{BLKREFS
331
4C
102
}
  0
BLOCK_RECORD
  5
4B
330
1
100
AcDbSymbolTableRecord
100
AcDbBlockTableRecord
  2
A4_oriz
340
0
102
{BLKREFS
331
4F
102
}
  0
BLOCK_RECORD
  5
21C
330
1
100
AcDbSymbolTableRecord
100
AcDbBlockTableRecord
  2
*D3
340
0
  0
BLOCK_RECORD
  5
228
330
1
100
AcDbSymbolTableRecord
100
AcDbBlockTableRecord
  2
*D4
340
0
  0
BLOCK_RECORD
  5
233
330
1
100
AcDbSymbolTableRecord
100
AcDbBlockTableRecord
  2
*D5
340
0
  0
BLOCK_RECORD
  5
23E
330
1
100
AcDbSymbolTableRecord
100
AcDbBlockTableRecord
  2
*D6
340
0
  0
ENDTAB
  0
ENDSEC
  0
SECTION
  2
BLOCKS
  0
BLOCK
  5
20
330
1F
100
AcDbEntity
  8
0
100
AcDbBlockBegin
  2
*Model_Space
 70
     0
 10
0.0
 20
0.0
 30
0.0
  3
*Model_Space
  1

  0
ENDBLK
  5
21
330
1F
100
AcDbEntity
  8
0
100
AcDbBlockEnd
  0
BLOCK
  5
1C
330
1B
100
AcDbEntity
 67
     1
  8
0
100
AcDbBlockBegin
  2
*Paper_Space
 70
     0
 10
0.0
 20
0.0
 30
0.0
  3
*Paper_Space
  1

  0
ENDBLK
  5
1D
330
1B
100
AcDbEntity
 67
     1
  8
0
100
AcDbBlockEnd
  0
BLOCK
  5
24
330
23
100
AcDbEntity
  8
0
100
AcDbBlockBegin
  2
*Paper_Space0
 70
     0
 10
0.0
 20
0.0
 30
0.0
  3
*Paper_Space0
  1

  0
ENDBLK
  5
25
330
23
100
AcDbEntity
  8
0
100
AcDbBlockEnd
  0
BLOCK
  5
49
330
48
100
AcDbEntity
  8
0
100
AcDbBlockBegin
  2
_formato_A4
 70
     0
 10
-851.90094738602
 20
25.5614149457395
 30
0.0
  3
_formato_A4
  1

  0
LINE
  5
50
330
48
100
AcDbEntity
  8
1
  6
Continuous
 62
     7
100
AcDbLine
 10
-1040.90094738602
 20
35.5614149457394
 30
0.0
 11
-1010.90094738602
 21
35.5614149457394
 31
0.0
  0
LINE
  5
51
330
48
100
AcDbEntity
  8
1
  6
Continuous
 62
     7
100
AcDbLine
 10
-1040.90094738602
 20
40.5614149457394
 30
0.0
 11
-1010.90094738602
 21
40.5614149457394
 31
0.0
  0
LINE
  5
52
330
48
100
AcDbEntity
  8
1
  6
Continuous
 62
     7
100
AcDbLine
 10
-900.90094738602
 20
45.5614149457395
 30
0.0
 11
-900.90094738602
 21
30.5614149457395
 31
0.0
  0
LINE
  5
53
330
48
100
AcDbEntity
  8
1
  6
Continuous
 62
     7
100
AcDbLine
 10
-883.548346008534
 20
45.5614149457395
 30
0.0
 11
-883.548346008534
 21
30.5614149457395
 31
0.0
  0
LINE
  5
54
330
48
100
AcDbEntity
  8
1
  6
Continuous
 62
     7
100
AcDbLine
 10
-1010.90094738602
 20
45.5614149457395
 30
0.0
 11
-1010.90094738602
 21
30.5614149457395
 31
0.0
  0
LINE
  5
55
330
48
100
AcDbEntity
  8
1
  6
Continuous
 62
     7
100
AcDbLine
 10
-1000.40094738602
 20
235.56141494574
 30
0.0
 11
-1000.40094738602
 21
220.56141494574
 31
0.0
  0
LINE
  5
56
330
48
100
AcDbEntity
  8
1
  6
Continuous
 62
     7
100
AcDbLine
 10
-1148.90094738602
 20
25.5614149457395
 30
0.0
 11
-851.90094738602
 21
25.5614149457395
 31
0.0
  0
LINE
  5
57
330
48
100
AcDbEntity
  8
1
  6
Continuous
 62
     7
100
AcDbLine
 10
-1148.90094738602
 20
235.56141494574
 30
0.0
 11
-1148.90094738602
 21
25.5614149457395
 31
0.0
  0
LINE
  5
58
330
48
100
AcDbEntity
  8
1
  6
Continuous
 62
     7
100
AcDbLine
 10
-851.90094738602
 20
235.56141494574
 30
0.0
 11
-1148.90094738602
 21
235.56141494574
 31
0.0
  0
LINE
  5
59
330
48
100
AcDbEntity
  8
1
  6
Continuous
 62
     7
100
AcDbLine
 10
-851.90094738602
 20
25.5614149457395
 30
0.0
 11
-851.90094738602
 21
235.56141494574
 31
0.0
  0
LINE
  5
5A
330
48
100
AcDbEntity
  8
1
  6
Continuous
 62
     7
100
AcDbLine
 10
-1143.90094738602
 20
30.5614149457395
 30
0.0
 11
-856.90094738602
 21
30.5614149457395
 31
0.0
  0
LINE
  5
5B
330
48
100
AcDbEntity
  8
1
  6
Continuous
 62
     7
100
AcDbLine
 10
-856.90094738602
 20
30.5614149457395
 30
0.0
 11
-856.90094738602
 21
214.56141494574
 31
0.0
  0
LINE
  5
5C
330
48
100
AcDbEntity
  8
1
  6
Continuous
 62
     7
100
AcDbLine
 10
-856.90094738602
 20
214.56141494574
 30
0.0
 11
-1143.90094738602
 21
214.56141494574
 31
0.0
  0
LINE
  5
5D
102
{ACAD_REACTORS
330
AB
102
}
330
48
100
AcDbEntity
  8
1
  6
Continuous
 62
     7
100
AcDbLine
 10
-867.891313363944
 20
35.6389147855721
 30
0.0
 11
-867.891313363944
 21
40.4839151059069
 31
0.0
  0
LINE
  5
5E
102
{ACAD_REACTORS
330
A8
102
}
330
48
100
AcDbEntity
  8
1
  6
Continuous
 62
     7
100
AcDbLine
 10
-869.224646697277
 20
38.0614149457395
 30
0.0
 11
-869.224646697277
 21
39.7934657533083
 31
0.0
  0
LINE
  5
5F
102
{ACAD_REACTORS
330
A8
102
}
330
48
100
AcDbEntity
  8
1
  6
Continuous
 62
     7
100
AcDbLine
 10
-869.224646697277
 20
39.7934657533083
 30
0.0
 11
-870.08030912998
 21
38.3114149457395
 31
0.0
  0
LINE
  5
60
102
{ACAD_REACTORS
330
A8
102
}
330
48
100
AcDbEntity
  8
1
  6
Continuous
 62
     7
100
AcDbLine
 10
-870.368984264575
 20
38.3114149457395
 30
0.0
 11
-871.224646697277
 21
39.7934657533083
 31
0.0
  0
LINE
  5
61
102
{ACAD_REACTORS
330
A8
102
}
330
48
100
AcDbEntity
  8
1
  6
Continuous
 62
     7
100
AcDbLine
 10
-871.224646697277
 20
39.7934657533083
 30
0.0
 11
-871.224646697277
 21
38.0614149457395
 31
0.0
  0
LINE
  5
62
330
48
100
AcDbEntity
  8
1
  6
Continuous
 62
     7
100
AcDbLine
 10
-878.641081972419
 20
38.2057792100808
 30
0.0
 11
-870.224646697277
 21
43.0614149457395
 31
0.0
  0
LINE
  5
63
330
48
100
AcDbEntity
  8
1
  6
Continuous
 62
     7
100
AcDbLine
 10
-870.224646697277
 20
43.0614149457395
 30
0.0
 11
-861.808211422136
 21
38.2057792100808
 31
0.0
  0
LINE
  5
64
330
48
100
AcDbEntity
  8
1
  6
Continuous
 62
     7
100
AcDbLine
 10
-861.808211422136
 20
37.9170506813981
 30
0.0
 11
-870.224646697277
 21
33.0614149457395
 31
0.0
  0
LINE
  5
65
330
48
100
AcDbEntity
  8
1
  6
Continuous
 62
     7
100
AcDbLine
 10
-870.224646697277
 20
33.0614149457395
 30
0.0
 11
-878.641081972419
 21
37.9170506813981
 31
0.0
  0
LINE
  5
66
102
{ACAD_REACTORS
330
A8
102
}
330
48
100
AcDbEntity
  8
1
  6
Continuous
 62
     7
100
AcDbLine
 10
-871.891313363944
 20
38.0614149457395
 30
0.0
 11
-871.891313363944
 21
41.2926322577741
 31
0.0
  0
LINE
  5
67
102
{ACAD_REACTORS
330
A8
102
}
330
48
100
AcDbEntity
  8
1
  6
Continuous
 62
     7
100
AcDbLine
 10
-871.396879680321
 20
41.4251153640118
 30
0.0
 11
-870.224646697277
 21
39.3947482790728
 31
0.0
  0
LINE
  5
68
102
{ACAD_REACTORS
330
A8
102
}
330
48
100
AcDbEntity
  8
1
  6
Continuous
 62
     7
100
AcDbLine
 10
-871.891313363944
 20
38.0614149457395
 30
0.0
 11
-871.891313363944
 21
36.4090000183724
 31
0.0
  0
LINE
  5
69
102
{ACAD_REACTORS
330
A8
102
}
330
48
100
AcDbEntity
  8
1
  6
Continuous
 62
     7
100
AcDbLine
 10
-871.224646697277
 20
36.4090000183724
 30
0.0
 11
-871.224646697277
 21
38.0614149457395
 31
0.0
  0
LINE
  5
6A
102
{ACAD_REACTORS
330
A8
102
}
330
48
100
AcDbEntity
  8
1
  6
Continuous
 62
     7
100
AcDbLine
 10
-869.224646697277
 20
38.0614149457395
 30
0.0
 11
-869.224646697277
 21
34.8696840163413
 31
0.0
  0
LINE
  5
6B
102
{ACAD_REACTORS
330
A8
102
}
330
48
100
AcDbEntity
  8
1
  6
Continuous
 62
     7
100
AcDbLine
 10
-868.557980030611
 20
34.8696840163413
 30
0.0
 11
-868.557980030611
 21
41.2926322577741
 31
0.0
  0
LINE
  5
6C
102
{ACAD_REACTORS
330
A8
102
}
330
48
100
AcDbEntity
  8
1
  6
Continuous
 62
     7
100
AcDbLine
 10
-869.052413714234
 20
41.4251153640118
 30
0.0
 11
-870.224646697277
 21
39.3947482790728
 31
0.0
  0
LINE
  5
6D
102
{ACAD_REACTORS
330
A9
102
}
330
48
100
AcDbEntity
  8
1
  6
Continuous
 62
     7
100
AcDbLine
 10
-873.224646697277
 20
35.8314360937721
 30
0.0
 11
-873.224646697277
 21
40.4839151059069
 31
0.0
  0
LINE
  5
6E
102
{ACAD_REACTORS
330
A9
102
}
330
48
100
AcDbEntity
  8
1
  6
Continuous
 62
     7
100
AcDbLine
 10
-872.557980030611
 20
40.4839151059069
 30
0.0
 11
-872.557980030611
 21
35.8314360937722
 31
0.0
  0
LINE
  5
6F
102
{ACAD_REACTORS
330
A9
102
}
330
48
100
AcDbEntity
  8
1
  6
Continuous
 62
     7
100
AcDbLine
 10
-872.557980030611
 20
35.8314360937722
 30
0.0
 11
-870.391405879447
 21
34.5814894681011
 31
0.0
  0
LINE
  5
70
102
{ACAD_REACTORS
330
A9
102
}
330
48
100
AcDbEntity
  8
1
  6
Continuous
 62
     7
100
AcDbLine
 10
-870.724554181774
 20
34.0040324107353
 30
0.0
 11
-872.891128332937
 21
35.2539790364064
 31
0.0
  0
LINE
  5
71
102
{ACAD_REACTORS
330
AA
102
}
330
48
100
AcDbEntity
  8
1
  6
Continuous
 62
     7
100
AcDbLine
 10
-873.891313363944
 20
39.7146843366762
 30
0.0
 11
-873.891313363944
 21
36.6006668630028
 31
0.0
  0
LINE
  5
72
102
{ACAD_REACTORS
330
AA
102
}
330
48
100
AcDbEntity
  8
1
  6
Continuous
 62
     7
100
AcDbLine
 10
-873.891313363944
 20
36.6006668630028
 30
0.0
 11
-873.891313363944
 21
36.4081455548027
 31
0.0
  0
LINE
  5
73
102
{ACAD_REACTORS
330
AA
102
}
330
48
100
AcDbEntity
  8
1
  6
Continuous
 62
     7
100
AcDbLine
 10
-874.557980030611
 20
36.4081455548027
 30
0.0
 11
-874.557980030611
 21
39.7146843366762
 31
0.0
  0
LINE
  5
74
102
{ACAD_REACTORS
330
AB
102
}
330
48
100
AcDbEntity
  8
1
  6
Continuous
 62
     7
100
AcDbLine
 10
-867.391405879447
 20
40.7726436345898
 30
0.0
 11
-866.058072546114
 21
40.003412865359
 31
0.0
  0
LINE
  5
75
102
{ACAD_REACTORS
330
AB
102
}
330
48
100
AcDbEntity
  8
1
  6
Continuous
 62
     7
100
AcDbLine
 10
-866.39122084844
 20
39.4259558079933
 30
0.0
 11
-867.224646697277
 21
39.9067784130915
 31
0.0
  0
LINE
  5
76
102
{ACAD_REACTORS
330
AB
102
}
330
48
100
AcDbEntity
  8
1
  6
Continuous
 62
     7
100
AcDbLine
 10
-867.224646697277
 20
39.9067784130915
 30
0.0
 11
-867.224646697277
 21
38.3947482790728
 31
0.0
  0
LINE
  5
77
102
{ACAD_REACTORS
330
AB
102
}
330
48
100
AcDbEntity
  8
1
  6
Continuous
 62
     7
100
AcDbLine
 10
-867.224646697277
 20
38.3947482790728
 30
0.0
 11
-866.224646697277
 21
38.3947482790728
 31
0.0
  0
LINE
  5
78
102
{ACAD_REACTORS
330
AB
102
}
330
48
100
AcDbEntity
  8
1
  6
Continuous
 62
     7
100
AcDbLine
 10
-866.224646697277
 20
37.7280816124061
 30
0.0
 11
-867.224646697277
 21
37.7280816124061
 31
0.0
  0
LINE
  5
79
102
{ACAD_REACTORS
330
AB
102
}
330
48
100
AcDbEntity
  8
1
  6
Continuous
 62
     7
100
AcDbLine
 10
-867.224646697277
 20
37.7280816124061
 30
0.0
 11
-867.224646697277
 21
36.2160514783875
 31
0.0
  0
LINE
  5
7A
102
{ACAD_REACTORS
330
AB
102
}
330
48
100
AcDbEntity
  8
1
  6
Continuous
 62
     7
100
AcDbLine
 10
-867.224646697277
 20
36.2160514783875
 30
0.0
 11
-866.39122084844
 21
36.6968740834858
 31
0.0
  0
LINE
  5
7B
102
{ACAD_REACTORS
330
AB
102
}
330
48
100
AcDbEntity
  8
1
  6
Continuous
 62
     7
100
AcDbLine
 10
-866.058072546114
 20
36.1194170261198
 30
0.0
 11
-867.391405879447
 21
35.3501862568893
 31
0.0
  0
LINE
  5
7C
330
48
100
AcDbEntity
  8
1
  6
Continuous
 62
     7
100
AcDbLine
 10
-1040.90094738602
 20
50.5614149457395
 30
0.0
 11
-856.90094738602
 21
50.5614149457395
 31
0.0
  0
LINE
  5
7D
330
48
100
AcDbEntity
  8
1
  6
Continuous
 62
     7
100
AcDbLine
 10
-1033.90094738602
 20
45.5614149457395
 30
0.0
 11
-1033.90094738602
 21
50.5614149457395
 31
0.0
  0
LINE
  5
7E
330
48
100
AcDbEntity
  8
1
  6
Continuous
 62
     7
100
AcDbLine
 10
-1015.90094738602
 20
45.5614149457395
 30
0.0
 11
-1015.90094738602
 21
50.5614149457395
 31
0.0
  0
LINE
  5
7F
330
48
100
AcDbEntity
  8
1
  6
Continuous
 62
     7
100
AcDbLine
 10
-1040.90094738602
 20
55.5614149457395
 30
0.0
 11
-856.90094738602
 21
55.5614149457395
 31
0.0
  0
LINE
  5
80
330
48
100
AcDbEntity
  8
1
  6
Continuous
 62
     7
100
AcDbLine
 10
-1033.90094738602
 20
50.5614149457395
 30
0.0
 11
-1033.90094738602
 21
55.5614149457395
 31
0.0
  0
LINE
  5
81
330
48
100
AcDbEntity
  8
1
  6
Continuous
 62
     7
100
AcDbLine
 10
-1015.90094738602
 20
50.5614149457395
 30
0.0
 11
-1015.90094738602
 21
55.5614149457395
 31
0.0
  0
LINE
  5
82
330
48
100
AcDbEntity
  8
1
  6
Continuous
 62
     7
100
AcDbLine
 10
-1040.90094738602
 20
60.5614149457395
 30
0.0
 11
-856.90094738602
 21
60.5614149457395
 31
0.0
  0
LINE
  5
83
330
48
100
AcDbEntity
  8
1
  6
Continuous
 62
     7
100
AcDbLine
 10
-1033.90094738602
 20
55.5614149457395
 30
0.0
 11
-1033.90094738602
 21
60.5614149457395
 31
0.0
  0
LINE
  5
84
330
48
100
AcDbEntity
  8
1
  6
Continuous
 62
     7
100
AcDbLine
 10
-1015.90094738602
 20
55.5614149457395
 30
0.0
 11
-1015.90094738602
 21
60.5614149457395
 31
0.0
  0
LINE
  5
85
330
48
100
AcDbEntity
  8
1
  6
Continuous
 62
     7
100
AcDbLine
 10
-1040.90094738602
 20
65.5614149457395
 30
0.0
 11
-856.90094738602
 21
65.5614149457395
 31
0.0
  0
LINE
  5
86
330
48
100
AcDbEntity
  8
1
  6
Continuous
 62
     7
100
AcDbLine
 10
-1033.90094738602
 20
60.5614149457395
 30
0.0
 11
-1033.90094738602
 21
65.5614149457395
 31
0.0
  0
LINE
  5
87
330
48
100
AcDbEntity
  8
1
  6
Continuous
 62
     7
100
AcDbLine
 10
-1015.90094738602
 20
60.5614149457395
 30
0.0
 11
-1015.90094738602
 21
65.5614149457395
 31
0.0
  0
LINE
  5
88
330
48
100
AcDbEntity
  8
1
  6
Continuous
 62
     7
100
AcDbLine
 10
-1143.90094738602
 20
214.56141494574
 30
0.0
 11
-1143.90094738602
 21
30.5614149457395
 31
0.0
  0
LINE
  5
89
330
48
100
AcDbEntity
  8
1
  6
Continuous
 62
     7
100
AcDbLine
 10
-1040.90094738602
 20
45.5614149457395
 30
0.0
 11
-856.90094738602
 21
45.5614149457395
 31
0.0
  0
LINE
  5
8A
330
48
100
AcDbEntity
  8
1
  6
Continuous
 62
     7
100
AcDbLine
 10
-1040.90094738602
 20
30.5614149457394
 30
0.0
 11
-1040.90094738602
 21
65.5614149457395
 31
0.0
  0
ARC
  5
8B
102
{ACAD_REACTORS
330
A8
102
}
330
48
100
AcDbEntity
  8
1
  6
Continuous
 62
     7
100
AcDbCircle
 10
-871.626347151469
 20
41.2926322577741
 30
0.0
 40
0.2649662124751279
100
AcDbArc
 50
30.00000000003399
 51
180.0
  0
ARC
  5
8C
102
{ACAD_REACTORS
330
A8
102
}
330
48
100
AcDbEntity
  8
1
  6
Continuous
 62
     7
100
AcDbCircle
 10
-871.557980030611
 20
36.4090000183724
 30
0.0
 40
0.3333333333330302
100
AcDbArc
 50
180.0
 51
0.0
  0
ARC
  5
8D
102
{ACAD_REACTORS
330
A8
102
}
330
48
100
AcDbEntity
  8
1
  6
Continuous
 62
     7
100
AcDbCircle
 10
-868.891313363944
 20
34.8696840163413
 30
0.0
 40
0.3333333333329165
100
AcDbArc
 50
180.0
 51
0.0
  0
ARC
  5
8E
102
{ACAD_REACTORS
330
A8
102
}
330
48
100
AcDbEntity
  8
1
  6
Continuous
 62
     7
100
AcDbCircle
 10
-868.822946243086
 20
41.2926322577741
 30
0.0
 40
0.2649662124749739
100
AcDbArc
 50
0.0
 51
149.9999999999783
  0
ARC
  5
8F
102
{ACAD_REACTORS
330
A9
102
}
330
48
100
AcDbEntity
  8
1
  6
Continuous
 62
     7
100
AcDbCircle
 10
-872.891313363944
 20
40.4839151059069
 30
0.0
 40
0.3333333333330302
100
AcDbArc
 50
0.0
 51
180.0
  0
ARC
  5
90
102
{ACAD_REACTORS
330
A9
102
}
330
48
100
AcDbEntity
  8
1
  6
Continuous
 62
     7
100
AcDbCircle
 10
-870.557980030611
 20
34.2927609394182
 30
0.0
 40
0.3333333333332634
100
AcDbArc
 50
240.0183606311838
 51
60.01836063103087
  0
ARC
  5
91
102
{ACAD_REACTORS
330
AA
102
}
330
48
100
AcDbEntity
  8
1
  6
Continuous
 62
     7
100
AcDbCircle
 10
-874.224646697277
 20
39.7146843366762
 30
0.0
 40
0.3333333333329165
100
AcDbArc
 50
0.0
 51
180.0
  0
ARC
  5
92
102
{ACAD_REACTORS
330
AA
102
}
330
48
100
AcDbEntity
  8
1
  6
Continuous
 62
     7
100
AcDbCircle
 10
-874.224646697277
 20
36.4081455548027
 30
0.0
 40
0.3333333333340533
100
AcDbArc
 50
180.0
 51
0.0
  0
ARC
  5
93
102
{ACAD_REACTORS
330
AB
102
}
330
48
100
AcDbEntity
  8
1
  6
Continuous
 62
     7
100
AcDbCircle
 10
-866.224646697277
 20
39.7146843366762
 30
0.0
 40
0.3333333333332634
100
AcDbArc
 50
240.0183606311838
 51
60.01836063117528
  0
ARC
  5
94
102
{ACAD_REACTORS
330
AB
102
}
330
48
100
AcDbEntity
  8
1
  6
Continuous
 62
     7
100
AcDbCircle
 10
-866.224646697277
 20
38.0614149457395
 30
0.0
 40
0.3333333333333997
100
AcDbArc
 50
270.0
 51
90.0
  0
ARC
  5
95
102
{ACAD_REACTORS
330
AB
102
}
330
48
100
AcDbEntity
  8
1
  6
Continuous
 62
     7
100
AcDbCircle
 10
-866.224646697277
 20
36.4081455548027
 30
0.0
 40
0.3333333333332634
100
AcDbArc
 50
299.9816393688162
 51
119.9816393687991
  0
ARC
  5
96
102
{ACAD_REACTORS
330
A8
102
}
330
48
100
AcDbEntity
  8
1
  6
Continuous
 62
     7
100
AcDbCircle
 10
-870.224646697277
 20
38.3947482790728
 30
0.0
 40
0.1666666666672217
100
AcDbArc
 50
209.9999999998767
 51
329.9999999999279
  0
ARC
  5
97
102
{ACAD_REACTORS
330
A9
102
}
330
48
100
AcDbEntity
  8
1
  6
Continuous
 62
     7
100
AcDbCircle
 10
-872.557980030611
 20
35.8314360937722
 30
0.0
 40
0.6666666666659467
100
AcDbArc
 50
180.0000000000086
 51
240.0183606311836
  0
ARC
  5
98
330
48
100
AcDbEntity
  8
1
  6
Continuous
 62
     7
100
AcDbCircle
 10
-878.557794896837
 20
38.0614149457395
 30
0.0
 40
0.166666666666755
100
AcDbArc
 50
119.9816393689948
 51
240.0183606310223
  0
ARC
  5
99
330
48
100
AcDbEntity
  8
1
  6
Continuous
 62
     7
100
AcDbCircle
 10
-861.891498497717
 20
38.0614149457395
 30
0.0
 40
0.1666666666663299
100
AcDbArc
 50
299.981639368673
 51
60.01836063130993
  0
ARC
  5
9A
102
{ACAD_REACTORS
330
AB
102
}
330
48
100
AcDbEntity
  8
1
  6
Continuous
 62
     7
100
AcDbCircle
 10
-867.557980030611
 20
40.4839151059069
 30
0.0
 40
0.3333333333337686
100
AcDbArc
 50
60.01836063103087
 51
180.0
  0
ARC
  5
9B
102
{ACAD_REACTORS
330
AB
102
}
330
48
100
AcDbEntity
  8
1
  6
Continuous
 62
     7
100
AcDbCircle
 10
-867.557980030611
 20
35.6389147855721
 30
0.0
 40
0.3333333333330302
100
AcDbArc
 50
180.0
 51
299.9816393689777
  0
MTEXT
  5
9D
330
48
100
AcDbEntity
  8
1
 62
     7
100
AcDbMText
 10
-1029.30094738602
 20
33.0614149457394
 30
0.0
 40
3.0
 41
0.0
 71
     4
 72
     1
  1
Pezzimenti
  7
CONVERTER_11
 73
     1
 44
0.75727272727273
  0
MTEXT
  5
9E
330
48
100
AcDbEntity
  8
1
 62
     7
100
AcDbMText
 10
-1039.90094738602
 20
33.0614149457394
 30
0.0
 40
3.0
 41
0.0
 71
     4
 72
     1
  1
Sign.
  7
CONVERTER_11
 73
     1
 44
0.75727272727273
  0
MTEXT
  5
9F
330
48
100
AcDbEntity
  8
1
 62
     7
100
AcDbMText
 10
-1029.30094738602
 20
38.0614149457394
 30
0.0
 40
3.0
 41
0.0
 71
     4
 72
     1
  1
20/06/14
  7
CONVERTER_11
 73
     1
 44
0.75727272727273
  0
MTEXT
  5
A0
330
48
100
AcDbEntity
  8
1
 62
     7
100
AcDbMText
 10
-1039.90094738602
 20
38.0614149457394
 30
0.0
 40
3.0
 41
0.0
 71
     4
 72
     1
  1
Date
  7
CONVERTER_11
 73
     1
 44
0.75727272727273
  0
MTEXT
  5
A2
330
48
100
AcDbEntity
  8
1
 62
     7
100
AcDbMText
 10
-1025.90094738602
 20
43.0614149457395
 30
0.0
 40
2.5
 41
0.0
 71
     5
 72
     1
  1
dimensions in mm
  7
CONVERTER_12
 73
     1
 44
0.75727272727273
  0
MTEXT
  5
A3
330
48
100
AcDbEntity
  8
1
 62
     7
100
AcDbMText
 10
-997.40094738602
 20
219.56141494574
 30
0.0
 40
4.0
 41
0.0
 71
     5
 72
     1
  1
Diritti riservati      All rights reserved
  7
CONVERTER_11
 73
     1
 44
0.75727272727273
  0
MTEXT
  5
A5
330
48
100
AcDbEntity
  8
1
 62
     7
100
AcDbMText
 10
-1009.62464669728
 20
38.0614149457395
 30
0.0
 40
4.5
 41
0.0
 71
     4
 72
     1
  1
MFON 06 L25\PHood with pegs, side entry, M25, high construction - LS TYPE
  7
CONVERTER_13
 73
     1
 44
0.75727272727273
  0
MTEXT
  5
A6
330
48
100
AcDbEntity
  8
1
 62
     7
100
AcDbMText
 10
-892.224646697277
 20
41.8220543664955
 30
0.0
 40
3.0
 41
0.0
 71
     5
 72
     1
  1
Scale
  7
CONVERTER_11
 73
     1
 44
0.75727272727273
  0
MTEXT
  5
A7
330
48
100
AcDbEntity
  8
1
 62
     7
100
AcDbMText
 10
-892.224646697277
 20
35.6220543664956
 30
0.0
 40
4.5
 41
0.0
 71
     5
 72
     1
  1
1:1
  7
CONVERTER_11
 73
     1
 44
0.75727272727273
  0
HATCH
  5
A8
330
48
100
AcDbEntity
  8
1
  6
Continuous
 62
     7
100
AcDbHatch
 10
0.0
 20
0.0
 30
0.0
210
0.0
220
0.0
230
1.0
  2
SOLID
 70
     1
 71
     1
 91
        1
 92
        1
 93
       16
 72
     2
 10
-871.626347151469
 20
41.2926322577741
 40
0.2649662124751279
 50
30.00000000003399
 51
180.0
 73
     1
 72
     1
 10
-871.891313363944
 20
41.2926322577741
 11
-871.891313363944
 21
38.0614149457395
 72
     1
 10
-871.891313363944
 20
38.0614149457395
 11
-871.891313363944
 21
36.4090000183724
 72
     2
 10
-871.557980030611
 20
36.4090000183724
 40
0.3333333333330302
 50
180.0
 51
360.0
 73
     1
 72
     1
 10
-871.224646697277
 20
36.4090000183724
 11
-871.224646697277
 21
38.0614149457395
 72
     1
 10
-871.224646697277
 20
38.0614149457395
 11
-871.224646697277
 21
39.7934657533083
 72
     1
 10
-871.224646697277
 20
39.7934657533083
 11
-870.368984264575
 21
38.3114149457395
 72
     2
 10
-870.224646697277
 20
38.3947482790728
 40
0.1666666666672217
 50
209.9999999998767
 51
329.9999999999279
 73
     1
 72
     1
 10
-870.08030912998
 20
38.3114149457395
 11
-869.224646697277
 21
39.7934657533083
 72
     1
 10
-869.224646697277
 20
39.7934657533083
 11
-869.224646697277
 21
38.0614149457395
 72
     1
 10
-869.224646697277
 20
38.0614149457395
 11
-869.224646697277
 21
34.8696840163413
 72
     2
 10
-868.891313363944
 20
34.8696840163413
 40
0.3333333333329165
 50
180.0
 51
360.0
 73
     1
 72
     1
 10
-868.557980030611
 20
34.8696840163413
 11
-868.557980030611
 21
41.2926322577741
 72
     2
 10
-868.822946243086
 20
41.2926322577741
 40
0.2649662124749739
 50
0.0
 51
149.9999999999783
 73
     1
 72
     1
 10
-869.052413714234
 20
41.4251153640118
 11
-870.224646697277
 21
39.3947482790728
 72
     1
 10
-870.224646697277
 20
39.3947482790728
 11
-871.396879680321
 21
41.4251153640118
 97
       16
330
6C
330
8E
330
6B
330
8D
330
6A
330
5E
330
5F
330
96
330
60
330
61
330
69
330
8C
330
68
330
66
330
8B
330
67
 75
     0
 76
     1
 98
        1
 10
0.0
 20
0.0
  0
HATCH
  5
A9
330
48
100
AcDbEntity
  8
1
  6
Continuous
 62
     7
100
AcDbHatch
 10
0.0
 20
0.0
 30
0.0
210
0.0
220
0.0
230
1.0
  2
SOLID
 70
     1
 71
     1
 91
        1
 92
        1
 93
        7
 72
     1
 10
-872.557980030611
 20
40.4839151059069
 11
-872.557980030611
 21
35.8314360937722
 72
     1
 10
-872.557980030611
 20
35.8314360937722
 11
-870.391405879447
 21
34.5814894681011
 72
     2
 10
-870.557980030611
 20
34.2927609394182
 40
0.3333333333332634
 50
299.9816393689691
 51
479.9816393688162
 73
     0
 72
     1
 10
-870.724554181774
 20
34.0040324107353
 11
-872.891128332937
 21
35.2539790364064
 72
     2
 10
-872.557980030611
 20
35.8314360937722
 40
0.6666666666659467
 50
119.9816393688165
 51
179.9999999999914
 73
     0
 72
     1
 10
-873.224646697277
 20
35.8314360937721
 11
-873.224646697277
 21
40.4839151059069
 72
     2
 10
-872.891313363944
 20
40.4839151059069
 40
0.3333333333330302
 50
180.0
 51
360.0
 73
     0
 97
        7
330
6E
330
6F
330
90
330
70
330
97
330
6D
330
8F
 75
     0
 76
     1
 98
        1
 10
0.0
 20
0.0
  0
HATCH
  5
AA
330
48
100
AcDbEntity
  8
1
  6
Continuous
 62
     7
100
AcDbHatch
 10
0.0
 20
0.0
 30
0.0
210
0.0
220
0.0
230
1.0
  2
SOLID
 70
     1
 71
     1
 91
        1
 92
        1
 93
        5
 72
     1
 10
-873.891313363944
 20
39.7146843366762
 11
-873.891313363944
 21
36.6006668630028
 72
     1
 10
-873.891313363944
 20
36.6006668630028
 11
-873.891313363944
 21
36.4081455548027
 72
     2
 10
-874.224646697277
 20
36.4081455548027
 40
0.3333333333340533
 50
0.0
 51
180.0
 73
     0
 72
     1
 10
-874.557980030611
 20
36.4081455548027
 11
-874.557980030611
 21
39.7146843366762
 72
     2
 10
-874.224646697277
 20
39.7146843366762
 40
0.3333333333329165
 50
180.0
 51
360.0
 73
     0
 97
        5
330
71
330
72
330
92
330
73
330
91
 75
     0
 76
     1
 98
        1
 10
0.0
 20
0.0
  0
HATCH
  5
AB
330
48
100
AcDbEntity
  8
1
  6
Continuous
 62
     7
100
AcDbHatch
 10
0.0
 20
0.0
 30
0.0
210
0.0
220
0.0
230
1.0
  2
SOLID
 70
     1
 71
     1
 91
        1
 92
        1
 93
       14
 72
     1
 10
-866.39122084844
 20
39.4259558079933
 11
-867.224646697277
 21
39.9067784130915
 72
     1
 10
-867.224646697277
 20
39.9067784130915
 11
-867.224646697277
 21
38.3947482790728
 72
     1
 10
-867.224646697277
 20
38.3947482790728
 11
-866.224646697277
 21
38.3947482790728
 72
     2
 10
-866.224646697277
 20
38.0614149457395
 40
0.3333333333333997
 50
270.0
 51
450.0
 73
     0
 72
     1
 10
-866.224646697277
 20
37.7280816124061
 11
-867.224646697277
 21
37.7280816124061
 72
     1
 10
-867.224646697277
 20
37.7280816124061
 11
-867.224646697277
 21
36.2160514783875
 72
     1
 10
-867.224646697277
 20
36.2160514783875
 11
-866.39122084844
 21
36.6968740834858
 72
     2
 10
-866.224646697277
 20
36.4081455548027
 40
0.3333333333332634
 50
240.0183606312009
 51
420.0183606311838
 73
     0
 72
     1
 10
-866.058072546114
 20
36.1194170261198
 11
-867.391405879447
 21
35.3501862568893
 72
     2
 10
-867.557980030611
 20
35.6389147855721
 40
0.3333333333330302
 50
60.01836063102231
 51
180.0
 73
     0
 72
     1
 10
-867.891313363944
 20
35.6389147855721
 11
-867.891313363944
 21
40.4839151059069
 72
     2
 10
-867.557980030611
 20
40.4839151059069
 40
0.3333333333337686
 50
180.0
 51
299.9816393689691
 73
     0
 72
     1
 10
-867.391405879447
 20
40.7726436345898
 11
-866.058072546114
 21
40.003412865359
 72
     2
 10
-866.224646697277
 20
39.7146843366762
 40
0.3333333333332634
 50
299.9816393688247
 51
479.9816393688162
 73
     0
 97
       14
330
74
330
9A
330
5D
330
9B
330
7B
330
95
330
7A
330
79
330
78
330
94
330
77
330
76
330
75
330
93
 75
     0
 76
     1
 98
        1
 10
0.0
 20
0.0
  0
ENDBLK
  5
4A
330
48
100
AcDbEntity
  8
0
100
AcDbBlockEnd
  0
BLOCK
  5
4D
330
4B
100
AcDbEntity
  8
0
100
AcDbBlockBegin
  2
A4_oriz
 70
     0
 10
297.0
 20
0.0
 30
0.0
  3
A4_oriz
  1

  0
INSERT
  5
4C
330
4B
100
AcDbEntity
  8
1
100
AcDbBlockReference
  2
_formato_A4
 10
297.0000000000001
 20
0.0
 30
0.0
  0
ENDBLK
  5
4E
330
4B
100
AcDbEntity
  8
0
100
AcDbBlockEnd
  0
BLOCK
  5
224
330
21C
100
AcDbEntity
  8
0
100
AcDbBlockBegin
  2
*D3
 70
     1
 10
0.0
 20
0.0
 30
0.0
  3
*D3
  1

  0
LINE
  5
21D
330
21C
100
AcDbEntity
  8
1
  6
Continuous
 62
     2
100
AcDbLine
 10
69.4399598171081
 20
73.1890311235343
 30
0.0
 11
129.4399598171081
 21
73.1890311235343
 31
0.0
  0
LINE
  5
21E
330
21C
100
AcDbEntity
  8
1
  6
Continuous
 62
     2
100
AcDbLine
 10
129.4399598171081
 20
82.68903112353362
 30
0.0
 11
129.4399598171081
 21
72.1890311235343
 31
0.0
  0
LINE
  5
21F
330
21C
100
AcDbEntity
  8
1
  6
Continuous
 62
     2
100
AcDbLine
 10
69.4399598171081
 20
82.68903112353362
 30
0.0
 11
69.4399598171081
 21
72.1890311235343
 31
0.0
  0
SOLID
  5
220
330
21C
100
AcDbEntity
  8
1
 62
     2
100
AcDbTrace
 10
126.4399598171081
 20
72.79407363077212
 30
0.0
 11
126.4399598171081
 21
73.5839886162965
 31
0.0
 12
129.4399598171081
 22
73.1890311235343
 32
0.0
 13
129.4399598171081
 23
73.1890311235343
 33
0.0
  0
SOLID
  5
221
330
21C
100
AcDbEntity
  8
1
 62
     2
100
AcDbTrace
 10
72.4399598171081
 20
73.5839886162965
 30
0.0
 11
72.4399598171081
 21
72.79407363077212
 31
0.0
 12
69.4399598171081
 22
73.1890311235343
 32
0.0
 13
69.4399598171081
 23
73.1890311235343
 33
0.0
  0
MTEXT
  5
223
330
21C
100
AcDbEntity
  8
1
 62
     4
100
AcDbMText
 10
97.10296345321758
 20
75.18902545849085
 30
0.0
 40
3.0
 41
0.0
 71
     7
 72
     1
  1
60
  7
CONVERTER_14
 11
0.9999999999882478
 21
4.848136811095759E-6
 31
0.0
 73
     1
 44
0.60024009603842
  0
ENDBLK
  5
225
330
21C
100
AcDbEntity
  8
0
100
AcDbBlockEnd
  0
BLOCK
  5
22F
330
228
100
AcDbEntity
  8
0
100
AcDbBlockBegin
  2
*D4
 70
     1
 10
0.0
 20
0.0
 30
0.0
  3
*D4
  1

  0
LINE
  5
229
330
228
100
AcDbEntity
  8
1
  6
Continuous
 62
     2
100
AcDbLine
 10
167.510578564211
 20
83.18903112366971
 30
0.0
 11
167.510578564211
 21
155.189031123669
 31
0.0
  0
LINE
  5
22A
330
228
100
AcDbEntity
  8
1
  6
Continuous
 62
     2
100
AcDbLine
 10
184.939959817218
 20
155.189031123669
 30
0.0
 11
166.510578564211
 21
155.189031123669
 31
0.0
  0
LINE
  5
22B
330
228
100
AcDbEntity
  8
1
  6
Continuous
 62
     2
100
AcDbLine
 10
178.9399598172098
 20
83.18903112366971
 30
0.0
 11
166.510578564211
 21
83.18903112366971
 31
0.0
  0
SOLID
  5
22C
330
228
100
AcDbEntity
  8
1
 62
     2
100
AcDbTrace
 10
167.9055360569732
 20
152.189031123669
 30
0.0
 11
167.1156210714488
 21
152.189031123669
 31
0.0
 12
167.510578564211
 22
155.189031123669
 32
0.0
 13
167.510578564211
 23
155.189031123669
 33
0.0
  0
SOLID
  5
22D
330
228
100
AcDbEntity
  8
1
 62
     2
100
AcDbTrace
 10
167.1156210714488
 20
86.18903112366971
 30
0.0
 11
167.9055360569732
 21
86.18903112366971
 31
0.0
 12
167.510578564211
 22
83.18903112366971
 32
0.0
 13
167.510578564211
 23
83.18903112366971
 33
0.0
  0
MTEXT
  5
22E
330
228
100
AcDbEntity
  8
1
 62
     4
100
AcDbMText
 10
165.510578564211
 20
116.852031123669
 30
0.0
 40
3.0
 41
0.0
 71
     7
 72
     1
  1
72
  7
CONVERTER_14
 11
0.0
 21
1.0
 31
0.0
 73
     1
 44
0.60024009603842
  0
ENDBLK
  5
230
330
228
100
AcDbEntity
  8
0
100
AcDbBlockEnd
  0
BLOCK
  5
23A
330
233
100
AcDbEntity
  8
0
100
AcDbBlockBegin
  2
*D5
 70
     1
 10
0.0
 20
0.0
 30
0.0
  3
*D5
  1

  0
LINE
  5
234
330
233
100
AcDbEntity
  8
1
  6
Continuous
 62
     2
100
AcDbLine
 10
222.43995981721
 20
73.1890311235343
 30
0.0
 11
179.43995981721
 21
73.1890311235343
 31
0.0
  0
LINE
  5
235
330
233
100
AcDbEntity
  8
1
  6
Continuous
 62
     2
100
AcDbLine
 10
179.43995981721
 20
82.68903112366951
 30
0.0
 11
179.43995981721
 21
72.1890311235343
 31
0.0
  0
LINE
  5
236
330
233
100
AcDbEntity
  8
1
  6
Continuous
 62
     2
100
AcDbLine
 10
222.43995981721
 20
82.68903112366462
 30
0.0
 11
222.43995981721
 21
72.1890311235343
 31
0.0
  0
SOLID
  5
237
330
233
100
AcDbEntity
  8
1
 62
     2
100
AcDbTrace
 10
182.43995981721
 20
73.5839886162965
 30
0.0
 11
182.43995981721
 21
72.79407363077212
 31
0.0
 12
179.43995981721
 22
73.1890311235343
 32
0.0
 13
179.43995981721
 23
73.1890311235343
 33
0.0
  0
SOLID
  5
238
330
233
100
AcDbEntity
  8
1
 62
     2
100
AcDbTrace
 10
219.43995981721
 20
72.79407363077212
 30
0.0
 11
219.43995981721
 21
73.5839886162965
 31
0.0
 12
222.43995981721
 22
73.1890311235343
 32
0.0
 13
222.43995981721
 23
73.1890311235343
 33
0.0
  0
MTEXT
  5
239
330
233
100
AcDbEntity
  8
1
 62
     4
100
AcDbMText
 10
198.6029634533195
 20
75.18902545849085
 30
0.0
 40
3.0
 41
0.0
 71
     7
 72
     1
  1
43
  7
CONVERTER_14
 11
0.9999999999882478
 21
4.848136811095759E-6
 31
0.0
 73
     1
 44
0.60024009603842
  0
ENDBLK
  5
23B
330
233
100
AcDbEntity
  8
0
100
AcDbBlockEnd
  0
BLOCK
  5
245
330
23E
100
AcDbEntity
  8
0
100
AcDbBlockBegin
  2
*D6
 70
     1
 10
0.0
 20
0.0
 30
0.0
  3
*D6
  1

  0
LINE
  5
23F
330
23E
100
AcDbEntity
  8
1
  6
Continuous
 62
     2
100
AcDbLine
 10
129.2701528739188
 20
149.429069221988
 30
0.0
 11
134.0204393103818
 21
124.884522398477
 31
0.0
  0
LINE
  5
240
330
23E
100
AcDbEntity
  8
1
  6
Continuous
 62
     2
100
AcDbLine
 10
121.9515682169772
 20
148.0126497753403
 30
0.0
 11
130.2519347468592
 21
149.6190806794465
 31
0.0
  0
LINE
  5
241
330
23E
100
AcDbEntity
  8
1
  6
Continuous
 62
     2
100
AcDbLine
 10
126.7018546534402
 20
123.4681029518293
 30
0.0
 11
135.0022211833222
 21
125.0745338559355
 31
0.0
  0
SOLID
  5
242
330
23E
100
AcDbEntity
  8
1
 62
     2
100
AcDbTrace
 10
130.2279493532702
 20
146.5587700520005
 30
0.0
 11
129.4524251393184
 21
146.4086771543327
 31
0.0
 12
129.2701528739188
 22
149.429069221988
 32
0.0
 13
129.2701528739188
 23
149.429069221988
 33
0.0
  0
SOLID
  5
243
330
23E
100
AcDbEntity
  8
1
 62
     2
100
AcDbTrace
 10
133.0626428310302
 20
127.7548215684645
 30
0.0
 11
133.8381670449821
 21
127.9049144661323
 31
0.0
 12
134.0204393103818
 22
124.884522398477
 32
0.0
 13
134.0204393103818
 23
124.884522398477
 33
0.0
  0
MTEXT
  5
244
330
23E
100
AcDbEntity
  8
1
 62
     4
100
AcDbMText
 10
132.867815153943
 20
141.3657680296173
 30
0.0
 40
3.0
 41
0.0
 71
     7
 72
     1
  1
M25
  7
CONVERTER_14
 11
0.1900114574585249
 21
-0.9817818729404649
 31
0.0
 73
     1
 44
0.60024009603842
  0
ENDBLK
  5
246
330
23E
100
AcDbEntity
  8
0
100
AcDbBlockEnd
  0
ENDSEC
  0
SECTION
  2
ENTITIES
  0
INSERT
  5
4F
330
1F
100
AcDbEntity
  8
0
100
AcDbBlockReference
  2
A4_oriz
 10
297.0
 20
0.0
 30
0.0
  0
POINT
  5
AC
330
1F
100
AcDbEntity
  8
1
 62
     7
100
AcDbPoint
 10
135.939959817108
 20
88.1890311235319
 30
0.0
  0
POINT
  5
AD
330
1F
100
AcDbEntity
  8
1
 62
     7
100
AcDbPoint
 10
62.9399598171081
 20
88.1890311235319
 30
0.0
  0
POINT
  5
AE
330
1F
100
AcDbEntity
  8
1
 62
     7
100
AcDbPoint
 10
129.439959817108
 20
83.1890311235336
 30
0.0
  0
POINT
  5
AF
330
1F
100
AcDbEntity
  8
1
 62
     7
100
AcDbPoint
 10
69.4399598171081
 20
83.1890311235336
 30
0.0
  0
POINT
  5
B0
330
1F
100
AcDbEntity
  8
1
 62
     7
100
AcDbPoint
 10
185.439959817218
 20
155.189031123669
 30
0.0
  0
POINT
  5
B1
330
1F
100
AcDbEntity
  8
1
 62
     7
100
AcDbPoint
 10
179.43995981721
 20
83.1890311236695
 30
0.0
  0
POINT
  5
B2
330
1F
100
AcDbEntity
  8
1
 62
     7
100
AcDbPoint
 10
179.43995981721
 20
83.1890311236695
 30
0.0
  0
POINT
  5
B3
330
1F
100
AcDbEntity
  8
1
 62
     7
100
AcDbPoint
 10
222.43995981721
 20
83.1890311236646
 30
0.0
  0
LINE
  5
B4
330
1F
100
AcDbEntity
  8
0
  6
Continuous
 62
     7
100
AcDbLine
 10
62.9399598171081
 20
93.1890311235319
 30
0.0
 11
67.9399598171081
 21
93.1890311235319
 31
0.0
  0
LINE
  5
B5
330
1F
100
AcDbEntity
  8
0
  6
Continuous
 62
     7
100
AcDbLine
 10
62.9399598171081
 20
88.1890311235319
 30
0.0
 11
67.9399598171081
 21
88.1890311235319
 31
0.0
  0
LINE
  5
B6
330
1F
100
AcDbEntity
  8
0
  6
Continuous
 62
     7
100
AcDbLine
 10
62.9399598171081
 20
88.1890311235319
 30
0.0
 11
62.9399598171081
 21
93.1890311235319
 31
0.0
  0
LINE
  5
B7
330
1F
100
AcDbEntity
  8
0
  6
Continuous
 62
     7
100
AcDbLine
 10
67.9399598171081
 20
90.6890311235321
 30
0.0
 11
67.9399598171081
 21
93.1890311235319
 31
0.0
  0
LINE
  5
B8
330
1F
100
AcDbEntity
  8
0
  6
Continuous
 62
     7
100
AcDbLine
 10
67.9399598171081
 20
93.1890311235319
 30
0.0
 11
69.4399598171081
 21
94.6890311235319
 31
0.0
  0
LINE
  5
B9
330
1F
100
AcDbEntity
  8
0
  6
Continuous
 62
     7
100
AcDbLine
 10
67.9399598171081
 20
88.1890311235319
 30
0.0
 11
67.9399598171081
 21
90.6890311235321
 31
0.0
  0
LINE
  5
BA
330
1F
100
AcDbEntity
  8
0
  6
Continuous
 62
     7
100
AcDbLine
 10
69.4399598174222
 20
96.9390311238477
 30
0.0
 11
69.4399598171081
 21
97.9390311232195
 31
0.0
  0
LINE
  5
BB
330
1F
100
AcDbEntity
  8
0
  6
Continuous
 62
     7
100
AcDbLine
 10
70.1399598167941
 20
98.6390311238477
 30
0.0
 11
69.4399598171081
 21
97.9390311232195
 31
0.0
  0
LINE
  5
BC
330
1F
100
AcDbEntity
  8
0
  6
Continuous
 62
     7
100
AcDbLine
 10
69.4399598171081
 20
97.9390311232195
 30
0.0
 11
75.4399598171081
 21
97.9390311235342
 31
0.0
  0
LINE
  5
BD
330
1F
100
AcDbEntity
  8
0
  6
Continuous
 62
     7
100
AcDbLine
 10
69.4399598174222
 20
96.9390311238477
 30
0.0
 11
69.4399598171081
 21
95.4390311232195
 31
0.0
  0
LINE
  5
BE
330
1F
100
AcDbEntity
  8
0
  6
Continuous
 62
     7
100
AcDbLine
 10
70.1399598171082
 20
96.1390311235336
 30
0.0
 11
70.1399598167941
 21
96.2390311232195
 31
0.0
  0
LINE
  5
BF
330
1F
100
AcDbEntity
  8
0
  6
Continuous
 62
     7
100
AcDbLine
 10
70.1399598171082
 20
96.1390311235336
 30
0.0
 11
69.4399598171081
 21
95.4390311232195
 31
0.0
  0
LINE
  5
C0
330
1F
100
AcDbEntity
  8
0
  6
Continuous
 62
     7
100
AcDbLine
 10
69.4399598171081
 20
83.1890311235336
 30
0.0
 11
69.4399598171081
 21
86.6890311235319
 31
0.0
  0
LINE
  5
C1
330
1F
100
AcDbEntity
  8
0
  6
Continuous
 62
     7
100
AcDbLine
 10
69.4399598171081
 20
94.6890311235319
 30
0.0
 11
69.4399598171081
 21
95.4390311232195
 31
0.0
  0
LINE
  5
C2
330
1F
100
AcDbEntity
  8
0
  6
Continuous
 62
     7
100
AcDbLine
 10
69.4399598171081
 20
95.4390311232195
 30
0.0
 11
75.4399598171081
 21
95.4390311235342
 31
0.0
  0
LINE
  5
C3
330
1F
100
AcDbEntity
  8
0
  6
Continuous
 62
     7
100
AcDbLine
 10
69.4399598171081
 20
83.1890311235336
 30
0.0
 11
75.4399598171081
 21
83.1890311235343
 31
0.0
  0
LINE
  5
C4
330
1F
100
AcDbEntity
  8
0
  6
Continuous
 62
     7
100
AcDbLine
 10
75.4399598171081
 20
96.9390311235343
 30
0.0
 11
69.4399598174222
 21
96.9390311238477
 31
0.0
  0
LINE
  5
C5
330
1F
100
AcDbEntity
  8
0
  6
Continuous
 62
     7
100
AcDbLine
 10
70.1399598167941
 20
98.6390311238477
 30
0.0
 11
75.4399598171081
 21
98.6390311235343
 31
0.0
  0
LINE
  5
C6
330
1F
100
AcDbEntity
  8
0
  6
Continuous
 62
     7
100
AcDbLine
 10
70.1399598171082
 20
96.1390311235336
 30
0.0
 11
75.4399598171081
 21
96.1390311235343
 31
0.0
  0
LINE
  5
C7
330
1F
100
AcDbEntity
  8
0
  6
Continuous
 62
     7
100
AcDbLine
 10
75.4399598171081
 20
96.2390311235342
 30
0.0
 11
70.1399598167941
 21
96.2390311232195
 31
0.0
  0
LINE
  5
C8
330
1F
100
AcDbEntity
  8
0
  6
Continuous
 62
     7
100
AcDbLine
 10
123.439959817108
 20
83.1890311235343
 30
0.0
 11
75.4399598171081
 21
83.1890311235343
 31
0.0
  0
LINE
  5
C9
330
1F
100
AcDbEntity
  8
0
  6
Continuous
 62
     7
100
AcDbLine
 10
73.7215209630659
 20
114.689031123534
 30
0.0
 11
79.7215209630659
 21
145.689031123534
 31
0.0
  0
LINE
  5
CA
330
1F
100
AcDbEntity
  8
0
  6
Continuous
 62
     7
100
AcDbLine
 10
70.1399598167941
 20
96.2390311232195
 30
0.0
 11
69.4399598174222
 21
96.9390311238477
 31
0.0
  0
LINE
  5
CB
330
1F
100
AcDbEntity
  8
0
  6
Continuous
 62
     7
100
AcDbLine
 10
67.9399598171081
 20
88.1890311235319
 30
0.0
 11
69.4399598171081
 21
86.6890311235319
 31
0.0
  0
LINE
  5
CC
330
1F
100
AcDbEntity
  8
0
  6
Continuous
 62
     7
100
AcDbLine
 10
69.4399598171081
 20
86.6890311235319
 30
0.0
 11
69.4399598171081
 21
94.6890311235319
 31
0.0
  0
LINE
  5
CD
330
1F
100
AcDbEntity
  8
0
  6
Continuous
 62
     7
100
AcDbLine
 10
129.439959817108
 20
95.4390311232195
 30
0.0
 11
129.439959816435
 21
94.6890311228588
 31
0.0
  0
LINE
  5
CE
330
1F
100
AcDbEntity
  8
0
  6
Continuous
 62
     7
100
AcDbLine
 10
129.439959816435
 20
94.6890311228588
 30
0.0
 11
129.439959816435
 21
86.6890311242049
 31
0.0
  0
LINE
  5
CF
330
1F
100
AcDbEntity
  8
0
  6
Continuous
 62
     7
100
AcDbLine
 10
75.4399598171081
 20
97.9390311235342
 30
0.0
 11
123.439959817108
 21
97.9390311235343
 31
0.0
  0
LINE
  5
D0
330
1F
100
AcDbEntity
  8
0
  6
Continuous
 62
     7
100
AcDbLine
 10
75.4399598171081
 20
98.6390311235343
 30
0.0
 11
123.439959817108
 21
98.6390311235343
 31
0.0
  0
LINE
  5
D1
330
1F
100
AcDbEntity
  8
0
  6
Continuous
 62
     7
100
AcDbLine
 10
70.1399598167941
 20
98.6390311238477
 30
0.0
 11
70.1399598167941
 21
98.7390311232195
 31
0.0
  0
LINE
  5
D2
330
1F
100
AcDbEntity
  8
0
  6
Continuous
 62
     7
100
AcDbLine
 10
123.439959817108
 20
98.7390311235342
 30
0.0
 11
75.4399598171081
 21
98.7390311235342
 31
0.0
  0
LINE
  5
D3
330
1F
100
AcDbEntity
  8
0
  6
Continuous
 62
     7
100
AcDbLine
 10
75.4399598171081
 20
98.7390311235342
 30
0.0
 11
70.1399598167941
 21
98.7390311232195
 31
0.0
  0
LINE
  5
D4
330
1F
100
AcDbEntity
  8
0
  6
Continuous
 62
     7
100
AcDbLine
 10
69.4399598171081
 20
99.4390311238477
 30
0.0
 11
69.4399598171081
 21
97.9390311232195
 31
0.0
  0
LINE
  5
D5
330
1F
100
AcDbEntity
  8
0
  6
Continuous
 62
     7
100
AcDbLine
 10
123.439959817108
 20
104.439031123534
 30
0.0
 11
75.4399598171081
 21
104.439031123534
 31
0.0
  0
LINE
  5
D6
330
1F
100
AcDbEntity
  8
0
  6
Continuous
 62
     7
100
AcDbLine
 10
123.439959817108
 20
102.939031123534
 30
0.0
 11
129.439959817108
 21
102.939031123219
 31
0.0
  0
LINE
  5
D7
330
1F
100
AcDbEntity
  8
0
  6
Continuous
 62
     7
100
AcDbLine
 10
75.4399598171081
 20
103.639031123534
 30
0.0
 11
123.439959817108
 21
103.639031123534
 31
0.0
  0
LINE
  5
D8
330
1F
100
AcDbEntity
  8
0
  6
Continuous
 62
     7
100
AcDbLine
 10
123.439959817108
 20
103.739031123534
 30
0.0
 11
75.4399598171081
 21
103.739031123534
 31
0.0
  0
LINE
  5
D9
330
1F
100
AcDbEntity
  8
0
  6
Continuous
 62
     7
100
AcDbLine
 10
129.439959817108
 20
101.939031123848
 30
0.0
 11
123.439959817108
 21
101.939031123534
 31
0.0
  0
LINE
  5
DA
330
1F
100
AcDbEntity
  8
0
  6
Continuous
 62
     7
100
AcDbLine
 10
129.439959817108
 20
102.939031123219
 30
0.0
 11
129.439959817108
 21
101.939031123848
 31
0.0
  0
LINE
  5
DB
330
1F
100
AcDbEntity
  8
0
  6
Continuous
 62
     7
100
AcDbLine
 10
75.4399598171081
 20
102.939031123534
 30
0.0
 11
123.439959817108
 21
102.939031123534
 31
0.0
  0
LINE
  5
DC
330
1F
100
AcDbEntity
  8
0
  6
Continuous
 62
     7
100
AcDbLine
 10
123.439959817108
 20
101.939031123534
 30
0.0
 11
75.4399598171081
 21
101.939031123534
 31
0.0
  0
LINE
  5
DD
330
1F
100
AcDbEntity
  8
0
  6
Continuous
 62
     7
100
AcDbLine
 10
123.439959817108
 20
99.4390311235343
 30
0.0
 11
75.4399598171081
 21
99.4390311235343
 31
0.0
  0
LINE
  5
DE
330
1F
100
AcDbEntity
  8
0
  6
Continuous
 62
     7
100
AcDbLine
 10
75.4399598171081
 20
99.4390311235343
 30
0.0
 11
69.4399598171081
 21
99.4390311238477
 31
0.0
  0
LINE
  5
DF
330
1F
100
AcDbEntity
  8
0
  6
Continuous
 62
     7
100
AcDbLine
 10
69.4399598171081
 20
99.4390311238477
 30
0.0
 11
69.4399598171081
 21
100.439031123532
 31
0.0
  0
LINE
  5
E0
330
1F
100
AcDbEntity
  8
0
  6
Continuous
 62
     7
100
AcDbLine
 10
123.439959817108
 20
101.239031123534
 30
0.0
 11
75.4399598171081
 21
101.239031123534
 31
0.0
  0
LINE
  5
E1
330
1F
100
AcDbEntity
  8
0
  6
Continuous
 62
     7
100
AcDbLine
 10
75.4399598171081
 20
100.439031123534
 30
0.0
 11
123.439959817108
 21
100.439031123534
 31
0.0
  0
LINE
  5
E2
330
1F
100
AcDbEntity
  8
0
  6
Continuous
 62
     7
100
AcDbLine
 10
75.4399598171081
 20
101.139031123534
 30
0.0
 11
123.439959817108
 21
101.139031123534
 31
0.0
  0
LINE
  5
E3
330
1F
100
AcDbEntity
  8
0
  6
Continuous
 62
     7
100
AcDbLine
 10
123.439959817108
 20
96.9390311235343
 30
0.0
 11
75.4399598171081
 21
96.9390311235343
 31
0.0
  0
LINE
  5
E4
330
1F
100
AcDbEntity
  8
0
  6
Continuous
 62
     7
100
AcDbLine
 10
123.439959817108
 20
96.2390311235342
 30
0.0
 11
75.4399598171081
 21
96.2390311235342
 31
0.0
  0
LINE
  5
E5
330
1F
100
AcDbEntity
  8
0
  6
Continuous
 62
     7
100
AcDbLine
 10
75.4399598171081
 20
96.1390311235343
 30
0.0
 11
123.439959817108
 21
96.1390311235342
 31
0.0
  0
LINE
  5
E6
330
1F
100
AcDbEntity
  8
0
  6
Continuous
 62
     7
100
AcDbLine
 10
75.4399598171081
 20
95.4390311235342
 30
0.0
 11
123.439959817108
 21
95.4390311235343
 31
0.0
  0
LINE
  5
E7
330
1F
100
AcDbEntity
  8
0
  6
Continuous
 62
     7
100
AcDbLine
 10
121.973771402716
 20
113.689031123534
 30
0.0
 11
76.9061482315005
 21
113.689031123534
 31
0.0
  0
LINE
  5
E8
330
1F
100
AcDbEntity
  8
0
  6
Continuous
 62
     7
100
AcDbLine
 10
125.15839867115
 20
114.689031123534
 30
0.0
 11
73.7215209630659
 21
114.689031123534
 31
0.0
  0
LINE
  5
E9
330
1F
100
AcDbEntity
  8
0
  6
Continuous
 62
     7
100
AcDbLine
 10
70.1399598167941
 20
98.7390311232195
 30
0.0
 11
69.4399598171081
 21
99.4390311238477
 31
0.0
  0
LINE
  5
EA
330
1F
100
AcDbEntity
  8
0
  6
Continuous
 62
     7
100
AcDbLine
 10
135.939959817108
 20
88.1890311235319
 30
0.0
 11
135.939959817108
 21
93.1890311235319
 31
0.0
  0
LINE
  5
EB
330
1F
100
AcDbEntity
  8
0
  6
Continuous
 62
     7
100
AcDbLine
 10
135.939959817108
 20
93.1890311235319
 30
0.0
 11
130.939959817781
 21
93.1890311242049
 31
0.0
  0
LINE
  5
EC
330
1F
100
AcDbEntity
  8
0
  6
Continuous
 62
     7
100
AcDbLine
 10
135.939959817108
 20
88.1890311235319
 30
0.0
 11
130.939959817781
 21
88.1890311228588
 31
0.0
  0
LINE
  5
ED
330
1F
100
AcDbEntity
  8
0
  6
Continuous
 62
     7
100
AcDbLine
 10
130.939959817781
 20
88.1890311228588
 30
0.0
 11
129.439959816435
 21
86.6890311242049
 31
0.0
  0
LINE
  5
EE
330
1F
100
AcDbEntity
  8
0
  6
Continuous
 62
     7
100
AcDbLine
 10
130.939959817781
 20
88.1890311228588
 30
0.0
 11
130.939959817781
 21
93.1890311242049
 31
0.0
  0
LINE
  5
EF
330
1F
100
AcDbEntity
  8
0
  6
Continuous
 62
     7
100
AcDbLine
 10
129.439959816435
 20
86.6890311242049
 30
0.0
 11
129.439959817108
 21
83.1890311235336
 31
0.0
  0
LINE
  5
F0
330
1F
100
AcDbEntity
  8
0
  6
Continuous
 62
     7
100
AcDbLine
 10
123.439959817108
 20
83.1890311235343
 30
0.0
 11
129.439959817108
 21
83.1890311235336
 31
0.0
  0
LINE
  5
F1
330
1F
100
AcDbEntity
  8
0
  6
Continuous
 62
     7
100
AcDbLine
 10
129.439959817108
 20
97.9390311232195
 30
0.0
 11
129.439959816794
 21
99.4390311238477
 31
0.0
  0
LINE
  5
F2
330
1F
100
AcDbEntity
  8
0
  6
Continuous
 62
     7
100
AcDbLine
 10
129.439959817108
 20
100.439031123532
 30
0.0
 11
129.439959817108
 21
101.939031123848
 31
0.0
  0
LINE
  5
F3
330
1F
100
AcDbEntity
  8
0
  6
Continuous
 62
     7
100
AcDbLine
 10
129.439959817108
 20
97.9390311232195
 30
0.0
 11
129.439959817108
 21
96.939031123532
 31
0.0
  0
LINE
  5
F4
330
1F
100
AcDbEntity
  8
0
  6
Continuous
 62
     7
100
AcDbLine
 10
129.439959817108
 20
102.939031123219
 30
0.0
 11
129.439959817108
 21
104.439031123848
 31
0.0
  0
LINE
  5
F5
330
1F
100
AcDbEntity
  8
0
  6
Continuous
 62
     7
100
AcDbLine
 10
128.739959817108
 20
103.639031123534
 30
0.0
 11
129.439959817108
 21
102.939031123219
 31
0.0
  0
LINE
  5
F6
330
1F
100
AcDbEntity
  8
0
  6
Continuous
 62
     7
100
AcDbLine
 10
128.739959817422
 20
96.1390311238477
 30
0.0
 11
128.739959817422
 21
96.2390311232195
 31
0.0
  0
LINE
  5
F7
330
1F
100
AcDbEntity
  8
0
  6
Continuous
 62
     7
100
AcDbLine
 10
128.739959817108
 20
101.139031123534
 30
0.0
 11
128.739959817108
 21
101.239031123534
 31
0.0
  0
LINE
  5
F8
330
1F
100
AcDbEntity
  8
0
  6
Continuous
 62
     7
100
AcDbLine
 10
129.439959817108
 20
95.4390311232195
 30
0.0
 11
129.439959817108
 21
96.939031123532
 31
0.0
  0
LINE
  5
F9
330
1F
100
AcDbEntity
  8
0
  6
Continuous
 62
     7
100
AcDbLine
 10
128.739959817108
 20
98.7390311235336
 30
0.0
 11
129.439959816794
 21
99.4390311238477
 31
0.0
  0
LINE
  5
FA
330
1F
100
AcDbEntity
  8
0
  6
Continuous
 62
     7
100
AcDbLine
 10
128.739959817108
 20
101.239031123534
 30
0.0
 11
129.439959817108
 21
101.939031123848
 31
0.0
  0
LINE
  5
FB
330
1F
100
AcDbEntity
  8
0
  6
Continuous
 62
     7
100
AcDbLine
 10
123.439959817108
 20
97.9390311235343
 30
0.0
 11
129.439959817108
 21
97.9390311232195
 31
0.0
  0
LINE
  5
FC
330
1F
100
AcDbEntity
  8
0
  6
Continuous
 62
     7
100
AcDbLine
 10
129.439959817108
 20
96.939031123532
 30
0.0
 11
123.439959817108
 21
96.9390311235343
 31
0.0
  0
LINE
  5
FD
330
1F
100
AcDbEntity
  8
0
  6
Continuous
 62
     7
100
AcDbLine
 10
128.739959817422
 20
96.2390311232195
 30
0.0
 11
123.439959817108
 21
96.2390311235342
 31
0.0
  0
LINE
  5
FE
330
1F
100
AcDbEntity
  8
0
  6
Continuous
 62
     7
100
AcDbLine
 10
128.739959817108
 20
101.239031123534
 30
0.0
 11
123.439959817108
 21
101.239031123534
 31
0.0
  0
LINE
  5
FF
330
1F
100
AcDbEntity
  8
0
  6
Continuous
 62
     7
100
AcDbLine
 10
129.439959817108
 20
100.439031123532
 30
0.0
 11
129.439959816794
 21
99.4390311238477
 31
0.0
  0
LINE
  5
100
330
1F
100
AcDbEntity
  8
0
  6
Continuous
 62
     7
100
AcDbLine
 10
123.439959817108
 20
98.6390311235343
 30
0.0
 11
128.739959817108
 21
98.6390311235336
 31
0.0
  0
LINE
  5
101
330
1F
100
AcDbEntity
  8
0
  6
Continuous
 62
     7
100
AcDbLine
 10
128.739959817108
 20
98.6390311235336
 30
0.0
 11
128.739959817108
 21
98.7390311235336
 31
0.0
  0
LINE
  5
102
330
1F
100
AcDbEntity
  8
0
  6
Continuous
 62
     7
100
AcDbLine
 10
128.739959817108
 20
98.7390311235336
 30
0.0
 11
123.439959817108
 21
98.7390311235342
 31
0.0
  0
LINE
  5
103
330
1F
100
AcDbEntity
  8
0
  6
Continuous
 62
     7
100
AcDbLine
 10
129.439959816794
 20
99.4390311238477
 30
0.0
 11
123.439959817108
 21
99.4390311235343
 31
0.0
  0
LINE
  5
104
330
1F
100
AcDbEntity
  8
0
  6
Continuous
 62
     7
100
AcDbLine
 10
123.439959817108
 20
101.139031123534
 30
0.0
 11
128.739959817108
 21
101.139031123534
 31
0.0
  0
LINE
  5
105
330
1F
100
AcDbEntity
  8
0
  6
Continuous
 62
     7
100
AcDbLine
 10
123.439959817108
 20
100.439031123534
 30
0.0
 11
129.439959817108
 21
100.439031123532
 31
0.0
  0
LINE
  5
106
330
1F
100
AcDbEntity
  8
0
  6
Continuous
 62
     7
100
AcDbLine
 10
123.439959817108
 20
95.4390311235343
 30
0.0
 11
129.439959817108
 21
95.4390311232195
 31
0.0
  0
LINE
  5
107
330
1F
100
AcDbEntity
  8
0
  6
Continuous
 62
     7
100
AcDbLine
 10
123.439959817108
 20
96.1390311235342
 30
0.0
 11
128.739959817422
 21
96.1390311238477
 31
0.0
  0
LINE
  5
108
330
1F
100
AcDbEntity
  8
0
  6
Continuous
 62
     7
100
AcDbLine
 10
129.439959817108
 20
104.439031123848
 30
0.0
 11
123.439959817108
 21
104.439031123534
 31
0.0
  0
LINE
  5
109
330
1F
100
AcDbEntity
  8
0
  6
Continuous
 62
     7
100
AcDbLine
 10
129.439959817108
 20
106.11372431584
 30
0.0
 11
129.439959817108
 21
104.439031123848
 31
0.0
  0
LINE
  5
10A
330
1F
100
AcDbEntity
  8
0
  6
Continuous
 62
     7
100
AcDbLine
 10
128.739959817422
 20
103.73903112322
 30
0.0
 11
123.439959817108
 21
103.739031123534
 31
0.0
  0
LINE
  5
10B
330
1F
100
AcDbEntity
  8
0
  6
Continuous
 62
     7
100
AcDbLine
 10
128.739959817108
 20
103.639031123534
 30
0.0
 11
128.739959817422
 21
103.73903112322
 31
0.0
  0
LINE
  5
10C
330
1F
100
AcDbEntity
  8
0
  6
Continuous
 62
     7
100
AcDbLine
 10
123.439959817108
 20
103.639031123534
 30
0.0
 11
128.739959817108
 21
103.639031123534
 31
0.0
  0
LINE
  5
10D
330
1F
100
AcDbEntity
  8
0
  6
Continuous
 62
     7
100
AcDbLine
 10
119.15839867115
 20
145.689031123534
 30
0.0
 11
125.15839867115
 21
114.689031123534
 31
0.0
  0
LINE
  5
10E
330
1F
100
AcDbEntity
  8
0
  6
Continuous
 62
     7
100
AcDbLine
 10
128.739959817422
 20
103.73903112322
 30
0.0
 11
129.439959817108
 21
104.439031123848
 31
0.0
  0
LINE
  5
10F
330
1F
100
AcDbEntity
  8
0
  6
Continuous
 62
     7
100
AcDbLine
 10
128.739959817422
 20
96.2390311232195
 30
0.0
 11
129.439959817108
 21
96.939031123532
 31
0.0
  0
LINE
  5
110
330
1F
100
AcDbEntity
  8
0
  6
Continuous
 62
     7
100
AcDbLine
 10
128.739959817422
 20
96.1390311238477
 30
0.0
 11
129.439959817108
 21
95.4390311232195
 31
0.0
  0
LINE
  5
111
330
1F
100
AcDbEntity
  8
0
  6
Continuous
 62
     7
100
AcDbLine
 10
128.739959817108
 20
98.6390311235336
 30
0.0
 11
129.439959817108
 21
97.9390311232195
 31
0.0
  0
LINE
  5
112
330
1F
100
AcDbEntity
  8
0
  6
Continuous
 62
     7
100
AcDbLine
 10
130.939959817781
 20
93.1890311242049
 30
0.0
 11
129.439959816435
 21
94.6890311228588
 31
0.0
  0
LINE
  5
113
330
1F
100
AcDbEntity
  8
0
  6
Continuous
 62
     7
100
AcDbLine
 10
128.739959817108
 20
101.139031123534
 30
0.0
 11
129.439959817108
 21
100.439031123532
 31
0.0
  0
LINE
  5
114
330
1F
100
AcDbEntity
  8
0
  6
Continuous
 62
     7
100
AcDbLine
 10
83.293245005694
 20
146.689031123534
 30
0.0
 11
115.586674628522
 21
146.689031123534
 31
0.0
  0
LINE
  5
115
330
1F
100
AcDbEntity
  8
0
  6
Continuous
 62
     7
100
AcDbLine
 10
119.15839867115
 20
145.689031123534
 30
0.0
 11
79.7215209630659
 21
145.689031123534
 31
0.0
  0
LINE
  5
116
330
1F
100
AcDbEntity
  8
0
  6
Continuous
 62
     7
100
AcDbLine
 10
118.377435074552
 20
155.189031123534
 30
0.0
 11
114.812481080135
 21
155.189031123534
 31
0.0
  0
LINE
  5
117
330
1F
100
AcDbEntity
  8
0
  6
Continuous
 62
     7
100
AcDbLine
 10
69.5492807135665
 20
107.253855755235
 30
0.0
 11
78.6722877344006
 21
154.392081205237
 31
0.0
  0
LINE
  5
118
330
1F
100
AcDbEntity
  8
0
  6
Continuous
 62
     7
100
AcDbLine
 10
222.43995981721
 20
83.1890311236646
 30
0.0
 11
222.439959817211
 21
95.4390311236646
 31
0.0
  0
LINE
  5
119
330
1F
100
AcDbEntity
  8
0
  6
Continuous
 62
     7
100
AcDbLine
 10
216.43995981721
 20
83.1890311236653
 30
0.0
 11
222.43995981721
 21
83.1890311236646
 31
0.0
  0
LINE
  5
11A
330
1F
100
AcDbEntity
  8
0
  6
Continuous
 62
     7
100
AcDbLine
 10
216.43995981721
 20
83.1890311236653
 30
0.0
 11
185.43995981721
 21
83.1890311236688
 31
0.0
  0
LINE
  5
11B
330
1F
100
AcDbEntity
  8
0
  6
Continuous
 62
     7
100
AcDbLine
 10
179.43995981721
 20
83.1890311236695
 30
0.0
 11
185.43995981721
 21
83.1890311236688
 31
0.0
  0
LINE
  5
11C
330
1F
100
AcDbEntity
  8
0
  6
Continuous
 62
     7
100
AcDbLine
 10
179.439959817211
 20
95.4390311236695
 30
0.0
 11
179.43995981721
 21
83.1890311236695
 31
0.0
  0
LINE
  5
11D
330
1F
100
AcDbEntity
  8
0
  6
Continuous
 62
     7
100
AcDbLine
 10
222.439959817212
 20
106.113724315971
 30
0.0
 11
222.439959817213
 21
113.689031123665
 31
0.0
  0
LINE
  5
11E
330
1F
100
AcDbEntity
  8
0
  6
Continuous
 62
     7
100
AcDbLine
 10
221.739959817212
 20
101.139031123665
 30
0.0
 11
222.439959817212
 21
100.439031123665
 31
0.0
  0
LINE
  5
11F
330
1F
100
AcDbEntity
  8
0
  6
Continuous
 62
     7
100
AcDbLine
 10
221.739959817212
 20
101.239031123665
 30
0.0
 11
221.739959817212
 21
101.139031123665
 31
0.0
  0
LINE
  5
120
330
1F
100
AcDbEntity
  8
0
  6
Continuous
 62
     7
100
AcDbLine
 10
221.739959817212
 20
101.239031123665
 30
0.0
 11
222.439959817212
 21
101.939031123665
 31
0.0
  0
LINE
  5
121
330
1F
100
AcDbEntity
  8
0
  6
Continuous
 62
     7
100
AcDbLine
 10
216.439959817212
 20
101.239031123665
 30
0.0
 11
221.739959817212
 21
101.239031123665
 31
0.0
  0
LINE
  5
122
330
1F
100
AcDbEntity
  8
0
  6
Continuous
 62
     7
100
AcDbLine
 10
221.739959817212
 20
101.139031123665
 30
0.0
 11
216.439959817212
 21
101.139031123665
 31
0.0
  0
LINE
  5
123
330
1F
100
AcDbEntity
  8
0
  6
Continuous
 62
     7
100
AcDbLine
 10
216.439959817212
 20
100.439031123351
 30
0.0
 11
222.439959817212
 21
100.439031123665
 31
0.0
  0
LINE
  5
124
330
1F
100
AcDbEntity
  8
0
  6
Continuous
 62
     7
100
AcDbLine
 10
216.439959817212
 20
102.939031123351
 30
0.0
 11
222.439959817212
 21
102.939031123665
 31
0.0
  0
LINE
  5
125
330
1F
100
AcDbEntity
  8
0
  6
Continuous
 62
     7
100
AcDbLine
 10
222.439959817212
 20
101.939031123665
 30
0.0
 11
216.439959817212
 21
101.939031123979
 31
0.0
  0
LINE
  5
126
330
1F
100
AcDbEntity
  8
0
  6
Continuous
 62
     7
100
AcDbLine
 10
221.739959817212
 20
103.639031123665
 30
0.0
 11
216.439959817212
 21
103.639031123665
 31
0.0
  0
LINE
  5
127
330
1F
100
AcDbEntity
  8
0
  6
Continuous
 62
     7
100
AcDbLine
 10
221.739959817212
 20
103.639031123665
 30
0.0
 11
222.439959817212
 21
102.939031123665
 31
0.0
  0
LINE
  5
128
330
1F
100
AcDbEntity
  8
0
  6
Continuous
 62
     7
100
AcDbLine
 10
221.739959817525
 20
96.1390311239788
 30
0.0
 11
222.439959817211
 21
95.4390311236646
 31
0.0
  0
LINE
  5
129
330
1F
100
AcDbEntity
  8
0
  6
Continuous
 62
     7
100
AcDbLine
 10
216.439959817211
 20
95.4390311233512
 30
0.0
 11
222.439959817211
 21
95.4390311236646
 31
0.0
  0
LINE
  5
12A
330
1F
100
AcDbEntity
  8
0
  6
Continuous
 62
     7
100
AcDbLine
 10
222.439959817212
 20
101.939031123665
 30
0.0
 11
222.439959817212
 21
102.939031123665
 31
0.0
  0
LINE
  5
12B
330
1F
100
AcDbEntity
  8
0
  6
Continuous
 62
     7
100
AcDbLine
 10
222.439959817212
 20
99.4390311236646
 30
0.0
 11
222.439959817212
 21
100.439031123665
 31
0.0
  0
LINE
  5
12C
330
1F
100
AcDbEntity
  8
0
  6
Continuous
 62
     7
100
AcDbLine
 10
222.439959816898
 20
104.439031123979
 30
0.0
 11
222.439959817212
 21
106.113724315971
 31
0.0
  0
LINE
  5
12D
330
1F
100
AcDbEntity
  8
0
  6
Continuous
 62
     7
100
AcDbLine
 10
222.439959817211
 20
96.9390311236646
 30
0.0
 11
222.439959817212
 21
97.9390311236646
 31
0.0
  0
LINE
  5
12E
330
1F
100
AcDbEntity
  8
0
  6
Continuous
 62
     7
100
AcDbLine
 10
216.439959817212
 20
103.739031123665
 30
0.0
 11
221.739959817212
 21
103.739031123665
 31
0.0
  0
LINE
  5
12F
330
1F
100
AcDbEntity
  8
0
  6
Continuous
 62
     7
100
AcDbLine
 10
221.739959817212
 20
103.739031123665
 30
0.0
 11
221.739959817212
 21
103.639031123665
 31
0.0
  0
LINE
  5
130
330
1F
100
AcDbEntity
  8
0
  6
Continuous
 62
     7
100
AcDbLine
 10
221.739959817212
 20
98.7390311236647
 30
0.0
 11
222.439959817212
 21
99.4390311236646
 31
0.0
  0
LINE
  5
131
330
1F
100
AcDbEntity
  8
0
  6
Continuous
 62
     7
100
AcDbLine
 10
221.739959817212
 20
98.7390311236647
 30
0.0
 11
221.739959817212
 21
98.6390311236647
 31
0.0
  0
LINE
  5
132
330
1F
100
AcDbEntity
  8
0
  6
Continuous
 62
     7
100
AcDbLine
 10
221.739959817212
 20
98.6390311236647
 30
0.0
 11
222.439959817212
 21
97.9390311236646
 31
0.0
  0
LINE
  5
133
330
1F
100
AcDbEntity
  8
0
  6
Continuous
 62
     7
100
AcDbLine
 10
216.439959817212
 20
98.7390311236653
 30
0.0
 11
221.739959817212
 21
98.7390311236647
 31
0.0
  0
LINE
  5
134
330
1F
100
AcDbEntity
  8
0
  6
Continuous
 62
     7
100
AcDbLine
 10
222.439959817212
 20
99.4390311236646
 30
0.0
 11
216.439959817212
 21
99.4390311239794
 31
0.0
  0
LINE
  5
135
330
1F
100
AcDbEntity
  8
0
  6
Continuous
 62
     7
100
AcDbLine
 10
221.739959817212
 20
98.6390311236647
 30
0.0
 11
216.439959817212
 21
98.6390311236653
 31
0.0
  0
LINE
  5
136
330
1F
100
AcDbEntity
  8
0
  6
Continuous
 62
     7
100
AcDbLine
 10
221.739959817525
 20
96.2390311233506
 30
0.0
 11
221.739959817525
 21
96.1390311239788
 31
0.0
  0
LINE
  5
137
330
1F
100
AcDbEntity
  8
0
  6
Continuous
 62
     7
100
AcDbLine
 10
216.439959817211
 20
96.2390311233512
 30
0.0
 11
221.739959817525
 21
96.2390311233506
 31
0.0
  0
LINE
  5
138
330
1F
100
AcDbEntity
  8
0
  6
Continuous
 62
     7
100
AcDbLine
 10
221.739959817525
 20
96.1390311239788
 30
0.0
 11
216.439959817212
 21
96.1390311239794
 31
0.0
  0
LINE
  5
139
330
1F
100
AcDbEntity
  8
0
  6
Continuous
 62
     7
100
AcDbLine
 10
222.439959817211
 20
96.9390311236646
 30
0.0
 11
216.439959817211
 21
96.9390311239794
 31
0.0
  0
LINE
  5
13A
330
1F
100
AcDbEntity
  8
0
  6
Continuous
 62
     7
100
AcDbLine
 10
216.439959817212
 20
97.9390311233512
 30
0.0
 11
222.439959817212
 21
97.9390311236646
 31
0.0
  0
LINE
  5
13B
330
1F
100
AcDbEntity
  8
0
  6
Continuous
 62
     7
100
AcDbLine
 10
221.739959817525
 20
96.2390311233506
 30
0.0
 11
222.439959817211
 21
96.9390311236646
 31
0.0
  0
LINE
  5
13C
330
1F
100
AcDbEntity
  8
0
  6
Continuous
 62
     7
100
AcDbLine
 10
185.439959817212
 20
102.939031123355
 30
0.0
 11
199.439959817212
 21
102.939031123667
 31
0.0
  0
LINE
  5
13D
330
1F
100
AcDbEntity
  8
0
  6
Continuous
 62
     7
100
AcDbLine
 10
216.439959817212
 20
101.939031123979
 30
0.0
 11
202.439959817212
 21
101.939031123667
 31
0.0
  0
LINE
  5
13E
330
1F
100
AcDbEntity
  8
0
  6
Continuous
 62
     7
100
AcDbLine
 10
216.439959817212
 20
101.139031123665
 30
0.0
 11
202.439959817212
 21
101.139031123667
 31
0.0
  0
LINE
  5
13F
330
1F
100
AcDbEntity
  8
0
  6
Continuous
 62
     7
100
AcDbLine
 10
216.439959817212
 20
103.639031123665
 30
0.0
 11
202.439959817212
 21
103.639031123667
 31
0.0
  0
LINE
  5
140
330
1F
100
AcDbEntity
  8
0
  6
Continuous
 62
     7
100
AcDbLine
 10
185.439959817212
 20
103.639031123669
 30
0.0
 11
199.439959817212
 21
103.639031123667
 31
0.0
  0
LINE
  5
141
330
1F
100
AcDbEntity
  8
0
  6
Continuous
 62
     7
100
AcDbLine
 10
185.439959817212
 20
104.439031123983
 30
0.0
 11
179.439959817212
 21
104.439031123669
 31
0.0
  0
LINE
  5
142
330
1F
100
AcDbEntity
  8
0
  6
Continuous
 62
     7
100
AcDbLine
 10
216.439959817212
 20
104.439031123979
 30
0.0
 11
202.439959817212
 21
104.439031123667
 31
0.0
  0
LINE
  5
143
330
1F
100
AcDbEntity
  8
0
  6
Continuous
 62
     7
100
AcDbLine
 10
179.439959817212
 20
97.9390311236695
 30
0.0
 11
185.439959817212
 21
97.9390311233547
 31
0.0
  0
LINE
  5
144
330
1F
100
AcDbEntity
  8
0
  6
Continuous
 62
     7
100
AcDbLine
 10
179.439959817212
 20
97.9390311236695
 30
0.0
 11
179.439959817526
 21
96.9390311239836
 31
0.0
  0
LINE
  5
145
330
1F
100
AcDbEntity
  8
0
  6
Continuous
 62
     7
100
AcDbLine
 10
179.439959817211
 20
95.4390311236695
 30
0.0
 11
185.439959817211
 21
95.4390311233547
 31
0.0
  0
LINE
  5
146
330
1F
100
AcDbEntity
  8
0
  6
Continuous
 62
     7
100
AcDbLine
 10
185.439959817211
 20
96.9390311239829
 30
0.0
 11
179.439959817526
 21
96.9390311239836
 31
0.0
  0
LINE
  5
147
330
1F
100
AcDbEntity
  8
0
  6
Continuous
 62
     7
100
AcDbLine
 10
180.139959816897
 20
96.2390311233553
 30
0.0
 11
179.439959817526
 21
96.9390311239836
 31
0.0
  0
LINE
  5
148
330
1F
100
AcDbEntity
  8
0
  6
Continuous
 62
     7
100
AcDbLine
 10
202.439959817212
 20
103.739031123667
 30
0.0
 11
216.439959817212
 21
103.739031123665
 31
0.0
  0
LINE
  5
149
330
1F
100
AcDbEntity
  8
0
  6
Continuous
 62
     7
100
AcDbLine
 10
202.439959817212
 20
101.239031123667
 30
0.0
 11
216.439959817212
 21
101.239031123665
 31
0.0
  0
LINE
  5
14A
330
1F
100
AcDbEntity
  8
0
  6
Continuous
 62
     7
100
AcDbLine
 10
202.439959817212
 20
102.939031123667
 30
0.0
 11
216.439959817212
 21
102.939031123351
 31
0.0
  0
LINE
  5
14B
330
1F
100
AcDbEntity
  8
0
  6
Continuous
 62
     7
100
AcDbLine
 10
202.439959817212
 20
100.439031123667
 30
0.0
 11
216.439959817212
 21
100.439031123351
 31
0.0
  0
LINE
  5
14C
330
1F
100
AcDbEntity
  8
0
  6
Continuous
 62
     7
100
AcDbLine
 10
202.439959817212
 20
98.7390311236669
 30
0.0
 11
216.439959817212
 21
98.7390311236653
 31
0.0
  0
LINE
  5
14D
330
1F
100
AcDbEntity
  8
0
  6
Continuous
 62
     7
100
AcDbLine
 10
216.439959817212
 20
98.6390311236653
 30
0.0
 11
202.439959817212
 21
98.6390311236669
 31
0.0
  0
LINE
  5
14E
330
1F
100
AcDbEntity
  8
0
  6
Continuous
 62
     7
100
AcDbLine
 10
202.439959817212
 20
97.9390311236669
 30
0.0
 11
216.439959817212
 21
97.9390311233512
 31
0.0
  0
LINE
  5
14F
330
1F
100
AcDbEntity
  8
0
  6
Continuous
 62
     7
100
AcDbLine
 10
202.439959817211
 20
96.2390311236669
 30
0.0
 11
216.439959817211
 21
96.2390311233512
 31
0.0
  0
LINE
  5
150
330
1F
100
AcDbEntity
  8
0
  6
Continuous
 62
     7
100
AcDbLine
 10
202.439959817212
 20
95.4390311236669
 30
0.0
 11
216.439959817211
 21
95.4390311233512
 31
0.0
  0
LINE
  5
151
330
1F
100
AcDbEntity
  8
0
  6
Continuous
 62
     7
100
AcDbLine
 10
216.439959817211
 20
96.9390311239794
 30
0.0
 11
202.439959817211
 21
96.9390311236669
 31
0.0
  0
LINE
  5
152
330
1F
100
AcDbEntity
  8
0
  6
Continuous
 62
     7
100
AcDbLine
 10
216.439959817212
 20
96.1390311239794
 30
0.0
 11
202.439959817212
 21
96.1390311236669
 31
0.0
  0
LINE
  5
153
330
1F
100
AcDbEntity
  8
0
  6
Continuous
 62
     7
100
AcDbLine
 10
216.439959817212
 20
99.4390311239794
 30
0.0
 11
202.439959817212
 21
99.4390311236669
 31
0.0
  0
LINE
  5
154
330
1F
100
AcDbEntity
  8
0
  6
Continuous
 62
     7
100
AcDbLine
 10
180.439959817213
 20
114.689031123669
 30
0.0
 11
179.439959817213
 21
113.689031123669
 31
0.0
  0
LINE
  5
155
330
1F
100
AcDbEntity
  8
0
  6
Continuous
 62
     7
100
AcDbLine
 10
180.139959817211
 20
98.7390311236694
 30
0.0
 11
179.439959817526
 21
99.4390311239836
 31
0.0
  0
LINE
  5
156
330
1F
100
AcDbEntity
  8
0
  6
Continuous
 62
     7
100
AcDbLine
 10
179.439959817526
 20
100.439031123355
 30
0.0
 11
179.439959817526
 21
99.4390311239836
 31
0.0
  0
LINE
  5
157
330
1F
100
AcDbEntity
  8
0
  6
Continuous
 62
     7
100
AcDbLine
 10
180.139959817212
 20
101.239031123669
 30
0.0
 11
179.439959817212
 21
101.939031123669
 31
0.0
  0
LINE
  5
158
330
1F
100
AcDbEntity
  8
0
  6
Continuous
 62
     7
100
AcDbLine
 10
179.439959817526
 20
100.439031123355
 30
0.0
 11
185.439959817212
 21
100.439031123355
 31
0.0
  0
LINE
  5
159
330
1F
100
AcDbEntity
  8
0
  6
Continuous
 62
     7
100
AcDbLine
 10
180.139959817212
 20
101.139031123669
 30
0.0
 11
179.439959817526
 21
100.439031123355
 31
0.0
  0
LINE
  5
15A
330
1F
100
AcDbEntity
  8
0
  6
Continuous
 62
     7
100
AcDbLine
 10
185.439959817212
 20
99.4390311239829
 30
0.0
 11
179.439959817526
 21
99.4390311239836
 31
0.0
  0
LINE
  5
15B
330
1F
100
AcDbEntity
  8
0
  6
Continuous
 62
     7
100
AcDbLine
 10
185.439959817212
 20
101.939031123983
 30
0.0
 11
179.439959817212
 21
101.939031123669
 31
0.0
  0
LINE
  5
15C
330
1F
100
AcDbEntity
  8
0
  6
Continuous
 62
     7
100
AcDbLine
 10
179.439959817212
 20
102.939031123669
 30
0.0
 11
179.439959817212
 21
101.939031123669
 31
0.0
  0
LINE
  5
15D
330
1F
100
AcDbEntity
  8
0
  6
Continuous
 62
     7
100
AcDbLine
 10
179.439959817212
 20
102.939031123669
 30
0.0
 11
185.439959817212
 21
102.939031123355
 31
0.0
  0
LINE
  5
15E
330
1F
100
AcDbEntity
  8
0
  6
Continuous
 62
     7
100
AcDbLine
 10
179.439959817212
 20
106.113724315976
 30
0.0
 11
179.439959817212
 21
104.439031123669
 31
0.0
  0
LINE
  5
15F
330
1F
100
AcDbEntity
  8
0
  6
Continuous
 62
     7
100
AcDbLine
 10
180.139959817212
 20
103.639031123669
 30
0.0
 11
179.439959817212
 21
102.939031123669
 31
0.0
  0
LINE
  5
160
330
1F
100
AcDbEntity
  8
0
  6
Continuous
 62
     7
100
AcDbLine
 10
180.139959816898
 20
103.739031123355
 30
0.0
 11
179.439959817212
 21
104.439031123669
 31
0.0
  0
LINE
  5
161
330
1F
100
AcDbEntity
  8
0
  6
Continuous
 62
     7
100
AcDbLine
 10
221.739959817212
 20
103.739031123665
 30
0.0
 11
222.439959816898
 21
104.439031123979
 31
0.0
  0
LINE
  5
162
330
1F
100
AcDbEntity
  8
0
  6
Continuous
 62
     7
100
AcDbLine
 10
222.439959817213
 20
113.689031123665
 30
0.0
 11
221.439959817213
 21
114.689031123665
 31
0.0
  0
LINE
  5
163
330
1F
100
AcDbEntity
  8
0
  6
Continuous
 62
     7
100
AcDbLine
 10
179.439959817218
 20
152.687778030774
 30
0.0
 11
179.439959817217
 21
146.68903112367
 31
0.0
  0
LINE
  5
164
330
1F
100
AcDbEntity
  8
0
  6
Continuous
 62
     7
100
AcDbLine
 10
221.439959817217
 20
145.689031123665
 30
0.0
 11
222.439959817217
 21
146.689031123665
 31
0.0
  0
LINE
  5
165
330
1F
100
AcDbEntity
  8
0
  6
Continuous
 62
     7
100
AcDbLine
 10
179.439959817217
 20
146.68903112367
 30
0.0
 11
180.439959817217
 21
145.689031123669
 31
0.0
  0
LINE
  5
166
330
1F
100
AcDbEntity
  8
0
  6
Continuous
 62
     7
100
AcDbLine
 10
222.439959817217
 20
146.689031123665
 30
0.0
 11
222.439959817218
 21
152.689031123665
 31
0.0
  0
LINE
  5
167
330
1F
100
AcDbEntity
  8
0
  6
Continuous
 62
     7
100
AcDbLine
 10
216.439959817218
 20
155.189031123665
 30
0.0
 11
185.439959817218
 21
155.189031123669
 31
0.0
  0
LINE
  5
168
330
1F
100
AcDbEntity
  8
0
  6
Continuous
 62
     7
100
AcDbLine
 10
185.439959817218
 20
155.189031123669
 30
0.0
 11
181.939959817218
 21
155.189031123669
 31
0.0
  0
LINE
  5
169
330
1F
100
AcDbEntity
  8
0
  6
Continuous
 62
     7
100
AcDbLine
 10
179.439959817213
 20
113.689031123669
 30
0.0
 11
179.439959817212
 21
106.113724315976
 31
0.0
  0
LINE
  5
16A
330
1F
100
AcDbEntity
  8
0
  6
Continuous
 62
     7
100
AcDbLine
 10
180.139959817211
 20
98.6390311236694
 30
0.0
 11
179.439959817212
 21
97.9390311236695
 31
0.0
  0
LINE
  5
16B
330
1F
100
AcDbEntity
  8
0
  6
Continuous
 62
     7
100
AcDbLine
 10
202.439959817211
 20
96.2390311236669
 30
0.0
 11
202.439959817212
 21
96.1390311236669
 31
0.0
  0
LINE
  5
16C
330
1F
100
AcDbEntity
  8
0
  6
Continuous
 62
     7
100
AcDbLine
 10
202.439959817211
 20
96.9390311236669
 30
0.0
 11
202.439959817211
 21
96.2390311236669
 31
0.0
  0
LINE
  5
16D
330
1F
100
AcDbEntity
  8
0
  6
Continuous
 62
     7
100
AcDbLine
 10
202.439959817212
 20
96.1390311236669
 30
0.0
 11
202.439959817212
 21
95.4390311236669
 31
0.0
  0
LINE
  5
16E
330
1F
100
AcDbEntity
  8
0
  6
Continuous
 62
     7
100
AcDbLine
 10
202.439959817212
 20
98.7390311236669
 30
0.0
 11
202.439959817212
 21
98.6390311236669
 31
0.0
  0
LINE
  5
16F
330
1F
100
AcDbEntity
  8
0
  6
Continuous
 62
     7
100
AcDbLine
 10
202.439959817212
 20
98.6390311236669
 30
0.0
 11
202.439959817212
 21
97.9390311236669
 31
0.0
  0
LINE
  5
170
330
1F
100
AcDbEntity
  8
0
  6
Continuous
 62
     7
100
AcDbLine
 10
199.439959817212
 20
98.7390311236672
 30
0.0
 11
199.439959817212
 21
99.4390311236672
 31
0.0
  0
LINE
  5
171
330
1F
100
AcDbEntity
  8
0
  6
Continuous
 62
     7
100
AcDbLine
 10
199.439959817212
 20
98.6390311236672
 30
0.0
 11
199.439959817212
 21
98.7390311236672
 31
0.0
  0
LINE
  5
172
330
1F
100
AcDbEntity
  8
0
  6
Continuous
 62
     7
100
AcDbLine
 10
199.439959817212
 20
97.9390311236672
 30
0.0
 11
199.439959817212
 21
98.6390311236672
 31
0.0
  0
LINE
  5
173
330
1F
100
AcDbEntity
  8
0
  6
Continuous
 62
     7
100
AcDbLine
 10
199.439959817211
 20
96.2390311236672
 30
0.0
 11
199.439959817211
 21
96.9390311236672
 31
0.0
  0
LINE
  5
174
330
1F
100
AcDbEntity
  8
0
  6
Continuous
 62
     7
100
AcDbLine
 10
199.439959817212
 20
96.1390311236672
 30
0.0
 11
199.439959817211
 21
96.2390311236672
 31
0.0
  0
LINE
  5
175
330
1F
100
AcDbEntity
  8
0
  6
Continuous
 62
     7
100
AcDbLine
 10
199.439959817212
 20
95.4390311236672
 30
0.0
 11
199.439959817212
 21
96.1390311236672
 31
0.0
  0
LINE
  5
176
330
1F
100
AcDbEntity
  8
0
  6
Continuous
 62
     7
100
AcDbLine
 10
185.439959817212
 20
96.1390311239829
 30
0.0
 11
199.439959817212
 21
96.1390311236672
 31
0.0
  0
LINE
  5
177
330
1F
100
AcDbEntity
  8
0
  6
Continuous
 62
     7
100
AcDbLine
 10
185.439959817211
 20
95.4390311233547
 30
0.0
 11
199.439959817212
 21
95.4390311236672
 31
0.0
  0
LINE
  5
178
330
1F
100
AcDbEntity
  8
0
  6
Continuous
 62
     7
100
AcDbLine
 10
199.439959817211
 20
96.2390311236672
 30
0.0
 11
185.439959817211
 21
96.2390311233547
 31
0.0
  0
LINE
  5
179
330
1F
100
AcDbEntity
  8
0
  6
Continuous
 62
     7
100
AcDbLine
 10
199.439959817211
 20
96.9390311236672
 30
0.0
 11
185.439959817211
 21
96.9390311239829
 31
0.0
  0
LINE
  5
17A
330
1F
100
AcDbEntity
  8
0
  6
Continuous
 62
     7
100
AcDbLine
 10
185.439959817212
 20
97.9390311233547
 30
0.0
 11
199.439959817212
 21
97.9390311236672
 31
0.0
  0
LINE
  5
17B
330
1F
100
AcDbEntity
  8
0
  6
Continuous
 62
     7
100
AcDbLine
 10
185.439959817212
 20
98.6390311236688
 30
0.0
 11
199.439959817212
 21
98.6390311236672
 31
0.0
  0
LINE
  5
17C
330
1F
100
AcDbEntity
  8
0
  6
Continuous
 62
     7
100
AcDbLine
 10
199.439959817212
 20
98.7390311236672
 30
0.0
 11
185.439959817212
 21
98.7390311236688
 31
0.0
  0
LINE
  5
17D
330
1F
100
AcDbEntity
  8
0
  6
Continuous
 62
     7
100
AcDbLine
 10
199.439959817212
 20
99.4390311236672
 30
0.0
 11
185.439959817212
 21
99.4390311239829
 31
0.0
  0
LINE
  5
17E
330
1F
100
AcDbEntity
  8
0
  6
Continuous
 62
     7
100
AcDbLine
 10
202.439959817212
 20
99.4390311236669
 30
0.0
 11
202.439959817212
 21
98.7390311236669
 31
0.0
  0
LINE
  5
17F
330
1F
100
AcDbEntity
  8
0
  6
Continuous
 62
     7
100
AcDbLine
 10
202.439959817212
 20
101.239031123667
 30
0.0
 11
202.439959817212
 21
101.139031123667
 31
0.0
  0
LINE
  5
180
330
1F
100
AcDbEntity
  8
0
  6
Continuous
 62
     7
100
AcDbLine
 10
202.439959817212
 20
101.139031123667
 30
0.0
 11
202.439959817212
 21
100.439031123667
 31
0.0
  0
LINE
  5
181
330
1F
100
AcDbEntity
  8
0
  6
Continuous
 62
     7
100
AcDbLine
 10
202.439959817212
 20
101.939031123667
 30
0.0
 11
202.439959817212
 21
101.239031123667
 31
0.0
  0
LINE
  5
182
330
1F
100
AcDbEntity
  8
0
  6
Continuous
 62
     7
100
AcDbLine
 10
202.439959817212
 20
103.739031123667
 30
0.0
 11
202.439959817212
 21
103.639031123667
 31
0.0
  0
LINE
  5
183
330
1F
100
AcDbEntity
  8
0
  6
Continuous
 62
     7
100
AcDbLine
 10
202.439959817212
 20
103.639031123667
 30
0.0
 11
202.439959817212
 21
102.939031123667
 31
0.0
  0
LINE
  5
184
330
1F
100
AcDbEntity
  8
0
  6
Continuous
 62
     7
100
AcDbLine
 10
202.439959817212
 20
104.439031123667
 30
0.0
 11
202.439959817212
 21
103.739031123667
 31
0.0
  0
LINE
  5
185
330
1F
100
AcDbEntity
  8
0
  6
Continuous
 62
     7
100
AcDbLine
 10
185.439959817212
 20
101.139031123669
 30
0.0
 11
199.439959817212
 21
101.139031123667
 31
0.0
  0
LINE
  5
186
330
1F
100
AcDbEntity
  8
0
  6
Continuous
 62
     7
100
AcDbLine
 10
199.439959817212
 20
101.139031123667
 30
0.0
 11
199.439959817212
 21
101.239031123667
 31
0.0
  0
LINE
  5
187
330
1F
100
AcDbEntity
  8
0
  6
Continuous
 62
     7
100
AcDbLine
 10
199.439959817212
 20
101.239031123667
 30
0.0
 11
199.439959817212
 21
101.939031123667
 31
0.0
  0
LINE
  5
188
330
1F
100
AcDbEntity
  8
0
  6
Continuous
 62
     7
100
AcDbLine
 10
199.439959817212
 20
100.439031123667
 30
0.0
 11
199.439959817212
 21
101.139031123667
 31
0.0
  0
LINE
  5
189
330
1F
100
AcDbEntity
  8
0
  6
Continuous
 62
     7
100
AcDbLine
 10
199.439959817212
 20
102.939031123667
 30
0.0
 11
199.439959817212
 21
103.639031123667
 31
0.0
  0
LINE
  5
18A
330
1F
100
AcDbEntity
  8
0
  6
Continuous
 62
     7
100
AcDbLine
 10
199.439959817212
 20
103.639031123667
 30
0.0
 11
199.439959817212
 21
103.739031123667
 31
0.0
  0
LINE
  5
18B
330
1F
100
AcDbEntity
  8
0
  6
Continuous
 62
     7
100
AcDbLine
 10
199.439959817212
 20
103.739031123667
 30
0.0
 11
199.439959817212
 21
104.439031123667
 31
0.0
  0
LINE
  5
18C
330
1F
100
AcDbEntity
  8
0
  6
Continuous
 62
     7
100
AcDbLine
 10
199.439959817212
 20
104.439031123667
 30
0.0
 11
185.439959817212
 21
104.439031123983
 31
0.0
  0
LINE
  5
18D
330
1F
100
AcDbEntity
  8
0
  6
Continuous
 62
     7
100
AcDbLine
 10
199.439959817212
 20
103.739031123667
 30
0.0
 11
185.439959817212
 21
103.739031123355
 31
0.0
  0
LINE
  5
18E
330
1F
100
AcDbEntity
  8
0
  6
Continuous
 62
     7
100
AcDbLine
 10
199.439959817212
 20
101.939031123667
 30
0.0
 11
185.439959817212
 21
101.939031123983
 31
0.0
  0
LINE
  5
18F
330
1F
100
AcDbEntity
  8
0
  6
Continuous
 62
     7
100
AcDbLine
 10
185.439959817212
 20
100.439031123355
 30
0.0
 11
199.439959817212
 21
100.439031123667
 31
0.0
  0
LINE
  5
190
330
1F
100
AcDbEntity
  8
0
  6
Continuous
 62
     7
100
AcDbLine
 10
199.439959817212
 20
101.239031123667
 30
0.0
 11
185.439959817212
 21
101.239031123669
 31
0.0
  0
LINE
  5
191
330
1F
100
AcDbEntity
  8
0
  6
Continuous
 62
     7
100
AcDbLine
 10
180.139959817212
 20
101.139031123669
 30
0.0
 11
180.139959817212
 21
101.239031123669
 31
0.0
  0
LINE
  5
192
330
1F
100
AcDbEntity
  8
0
  6
Continuous
 62
     7
100
AcDbLine
 10
185.439959817212
 20
101.239031123669
 30
0.0
 11
180.139959817212
 21
101.239031123669
 31
0.0
  0
LINE
  5
193
330
1F
100
AcDbEntity
  8
0
  6
Continuous
 62
     7
100
AcDbLine
 10
180.139959817212
 20
101.139031123669
 30
0.0
 11
185.439959817212
 21
101.139031123669
 31
0.0
  0
LINE
  5
194
330
1F
100
AcDbEntity
  8
0
  6
Continuous
 62
     7
100
AcDbLine
 10
180.139959817212
 20
103.639031123669
 30
0.0
 11
180.139959816898
 21
103.739031123355
 31
0.0
  0
LINE
  5
195
330
1F
100
AcDbEntity
  8
0
  6
Continuous
 62
     7
100
AcDbLine
 10
180.139959817212
 20
103.639031123669
 30
0.0
 11
185.439959817212
 21
103.639031123669
 31
0.0
  0
LINE
  5
196
330
1F
100
AcDbEntity
  8
0
  6
Continuous
 62
     7
100
AcDbLine
 10
180.139959817211
 20
98.6390311236694
 30
0.0
 11
180.139959817211
 21
98.7390311236694
 31
0.0
  0
LINE
  5
197
330
1F
100
AcDbEntity
  8
0
  6
Continuous
 62
     7
100
AcDbLine
 10
180.139959816897
 20
96.1390311239835
 30
0.0
 11
180.139959816897
 21
96.2390311233553
 31
0.0
  0
LINE
  5
198
330
1F
100
AcDbEntity
  8
0
  6
Continuous
 62
     7
100
AcDbLine
 10
180.139959816897
 20
96.1390311239835
 30
0.0
 11
185.439959817212
 21
96.1390311239829
 31
0.0
  0
LINE
  5
199
330
1F
100
AcDbEntity
  8
0
  6
Continuous
 62
     7
100
AcDbLine
 10
185.439959817211
 20
96.2390311233547
 30
0.0
 11
180.139959816897
 21
96.2390311233553
 31
0.0
  0
LINE
  5
19A
330
1F
100
AcDbEntity
  8
0
  6
Continuous
 62
     7
100
AcDbLine
 10
180.139959817211
 20
98.6390311236694
 30
0.0
 11
185.439959817212
 21
98.6390311236688
 31
0.0
  0
LINE
  5
19B
330
1F
100
AcDbEntity
  8
0
  6
Continuous
 62
     7
100
AcDbLine
 10
185.439959817212
 20
98.7390311236688
 30
0.0
 11
180.139959817211
 21
98.7390311236694
 31
0.0
  0
LINE
  5
19C
330
1F
100
AcDbEntity
  8
0
  6
Continuous
 62
     7
100
AcDbLine
 10
185.439959817212
 20
103.739031123355
 30
0.0
 11
180.139959816898
 21
103.739031123355
 31
0.0
  0
LINE
  5
19D
330
1F
100
AcDbEntity
  8
0
  6
Continuous
 62
     7
100
AcDbLine
 10
180.139959816897
 20
96.1390311239835
 30
0.0
 11
179.439959817211
 21
95.4390311236695
 31
0.0
  0
LINE
  5
19E
330
1F
100
AcDbEntity
  8
0
  6
Continuous
 62
     7
100
AcDbLine
 10
219.939959817218
 20
155.189031123665
 30
0.0
 11
216.439959817218
 21
155.189031123665
 31
0.0
  0
LINE
  5
19F
330
1F
100
AcDbEntity
  8
0
  6
Continuous
 62
     7
100
AcDbLine
 10
221.439959817213
 20
114.689031123665
 30
0.0
 11
221.439959817217
 21
145.689031123665
 31
0.0
  0
LINE
  5
1A0
330
1F
100
AcDbEntity
  8
0
  6
Continuous
 62
     7
100
AcDbLine
 10
180.439959817217
 20
145.689031123669
 30
0.0
 11
180.439959817213
 21
114.689031123669
 31
0.0
  0
LINE
  5
1A1
330
1F
100
AcDbEntity
  8
1
  6
DOT_CENTER
 62
     2
100
AcDbLine
 10
205.339959817211
 20
90.689031123667
 30
0.0
 11
196.539959817211
 21
90.689031123667
 31
0.0
  0
LINE
  5
1A2
330
1F
100
AcDbEntity
  8
1
  6
DOT_CENTER
 62
     2
100
AcDbLine
 10
200.939959817211
 20
95.0890311236671
 30
0.0
 11
200.939959817211
 21
86.289031123667
 31
0.0
  0
LINE
  5
1A3
330
1F
100
AcDbEntity
  8
Sichtbare_Kanten_TC_020513_DIN_
  6
Continuous
 62
     7
100
AcDbLine
 10
99.4399598171081
 20
130.939031123534
 30
0.0
 11
98.3149598171081
 21
132.49261093722
 31
0.0
  0
LINE
  5
1A4
330
1F
100
AcDbEntity
  8
Sichtbare_Kanten_TC_020513_DIN_
  6
Continuous
 62
     7
100
AcDbLine
 10
98.3149598171081
 20
132.49261093722
 30
0.0
 11
98.3149598171081
 21
128.502252077171
 31
0.0
  0
LINE
  5
1A5
330
1F
100
AcDbEntity
  8
Sichtbare_Kanten_TC_020513_DIN_
  6
Continuous
 62
     7
100
AcDbLine
 10
97.5649598171081
 20
128.502252077171
 30
0.0
 11
97.5649598171081
 21
133.649848631436
 31
0.0
  0
LINE
  5
1A6
330
1F
100
AcDbEntity
  8
Sichtbare_Kanten_TC_020513_DIN_
  6
Continuous
 62
     7
100
AcDbLine
 10
98.243688676598
 20
133.869789032255
 30
0.0
 11
99.4399598171081
 21
132.217786636175
 31
0.0
  0
LINE
  5
1A7
330
1F
100
AcDbEntity
  8
Sichtbare_Kanten_TC_020513_DIN_
  6
Continuous
 62
     7
100
AcDbLine
 10
99.4399598171081
 20
132.217786636175
 30
0.0
 11
100.636230957617
 21
133.869789032255
 31
0.0
  0
LINE
  5
1A8
330
1F
100
AcDbEntity
  8
Sichtbare_Kanten_TC_020513_DIN_
  6
Continuous
 62
     7
100
AcDbLine
 10
101.314959817108
 20
133.649848631436
 30
0.0
 11
101.314959817108
 21
126.728213615633
 31
0.0
  0
LINE
  5
1A9
330
1F
100
AcDbEntity
  8
Sichtbare_Kanten_TC_020513_DIN_
  6
Continuous
 62
     7
100
AcDbLine
 10
100.564959817108
 20
126.728213615633
 30
0.0
 11
100.564959817108
 21
132.49261093722
 31
0.0
  0
LINE
  5
1AA
330
1F
100
AcDbEntity
  8
Sichtbare_Kanten_TC_020513_DIN_
  6
Continuous
 62
     7
100
AcDbLine
 10
100.564959817108
 20
132.49261093722
 30
0.0
 11
99.4399598171081
 21
130.939031123534
 31
0.0
  0
LINE
  5
1AB
330
1F
100
AcDbEntity
  8
Sichtbare_Kanten_TC_020513_DIN_
  6
Continuous
 62
     7
100
AcDbLine
 10
96.7399598171079
 20
132.741194785282
 30
0.0
 11
96.7399598171079
 21
127.853453933512
 31
0.0
  0
LINE
  5
1AC
330
1F
100
AcDbEntity
  8
Sichtbare_Kanten_TC_020513_DIN_
  6
Continuous
 62
     7
100
AcDbLine
 10
96.7399598171079
 20
127.853453933512
 30
0.0
 11
99.6273557371659
 21
126.187648595016
 31
0.0
  0
LINE
  5
1AD
330
1F
100
AcDbEntity
  8
Sichtbare_Kanten_TC_020513_DIN_
  6
Continuous
 62
     7
100
AcDbLine
 10
99.2525638970491
 20
125.53800940548
 30
0.0
 11
96.177563897049
 21
127.312047867018
 31
0.0
  0
LINE
  5
1AE
330
1F
100
AcDbEntity
  8
Sichtbare_Kanten_TC_020513_DIN_
  6
Continuous
 62
     7
100
AcDbLine
 10
95.9899598171079
 20
127.636867461786
 30
0.0
 11
95.9899598171079
 21
132.741194785282
 31
0.0
  0
LINE
  5
1AF
330
1F
100
AcDbEntity
  8
Sichtbare_Kanten_TC_020513_DIN_
  6
Continuous
 62
     7
100
AcDbLine
 10
89.6899598171081
 20
130.189031123534
 30
0.0
 11
99.4399598171081
 21
135.814031123534
 31
0.0
  0
LINE
  5
1B0
330
1F
100
AcDbEntity
  8
Sichtbare_Kanten_TC_020513_DIN_
  6
Continuous
 62
     7
100
AcDbLine
 10
99.4399598171081
 20
135.814031123534
 30
0.0
 11
109.189959817108
 21
130.189031123534
 31
0.0
  0
LINE
  5
1B1
330
1F
100
AcDbEntity
  8
Sichtbare_Kanten_TC_020513_DIN_
  6
Continuous
 62
     7
100
AcDbLine
 10
109.189959817108
 20
130.189031123534
 30
0.0
 11
99.4399598171081
 21
124.564031123534
 31
0.0
  0
LINE
  5
1B2
330
1F
100
AcDbEntity
  8
Sichtbare_Kanten_TC_020513_DIN_
  6
Continuous
 62
     7
100
AcDbLine
 10
99.4399598171081
 20
124.564031123534
 30
0.0
 11
89.6899598171081
 21
130.189031123534
 31
0.0
  0
LINE
  5
1B3
330
1F
100
AcDbEntity
  8
Sichtbare_Kanten_TC_020513_DIN_
  6
Continuous
 62
     7
100
AcDbLine
 10
99.4399598171081
 20
135.381098497963
 30
0.0
 11
90.4403763680978
 21
130.189031123534
 31
0.0
  0
LINE
  5
1B4
330
1F
100
AcDbEntity
  8
Sichtbare_Kanten_TC_020513_DIN_
  6
Continuous
 62
     7
100
AcDbLine
 10
108.439543266117
 20
130.189031123534
 30
0.0
 11
99.4399598171081
 21
135.381098497963
 31
0.0
  0
LINE
  5
1B5
330
1F
100
AcDbEntity
  8
Sichtbare_Kanten_TC_020513_DIN_
  6
Continuous
 62
     7
100
AcDbLine
 10
99.4399598171081
 20
124.996963749105
 30
0.0
 11
108.439543266117
 21
130.189031123534
 31
0.0
  0
LINE
  5
1B6
330
1F
100
AcDbEntity
  8
Sichtbare_Kanten_TC_020513_DIN_
  6
Continuous
 62
     7
100
AcDbLine
 10
90.4403763680978
 20
130.189031123534
 30
0.0
 11
99.4399598171081
 21
124.996963749105
 31
0.0
  0
LINE
  5
1B7
330
1F
100
AcDbEntity
  8
Sichtbare_Kanten_TC_020513_DIN_
  6
Continuous
 62
     7
100
AcDbLine
 10
95.2399598171079
 20
131.875810169897
 30
0.0
 11
95.2399598171079
 21
128.502252077171
 31
0.0
  0
LINE
  5
1B8
330
1F
100
AcDbEntity
  8
Sichtbare_Kanten_TC_020513_DIN_
  6
Continuous
 62
     7
100
AcDbLine
 10
94.4899598171079
 20
128.502252077171
 30
0.0
 11
94.4899598171079
 21
131.875810169897
 31
0.0
  0
LINE
  5
1B9
330
1F
100
AcDbEntity
  8
Sichtbare_Kanten_TC_020513_DIN_
  6
Continuous
 62
     7
100
AcDbLine
 10
102.627355737166
 20
133.109283610819
 30
0.0
 11
104.877355737166
 21
131.811206687742
 31
0.0
  0
LINE
  5
1BA
330
1F
100
AcDbEntity
  8
Sichtbare_Kanten_TC_020513_DIN_
  6
Continuous
 62
     7
100
AcDbLine
 10
104.502563897049
 20
131.161567498206
 30
0.0
 11
102.814959817108
 21
132.135185236634
 31
0.0
  0
LINE
  5
1BB
330
1F
100
AcDbEntity
  8
Sichtbare_Kanten_TC_020513_DIN_
  6
Continuous
 62
     7
100
AcDbLine
 10
102.814959817108
 20
132.135185236634
 30
0.0
 11
102.814959817108
 21
130.564031123534
 31
0.0
  0
LINE
  5
1BC
330
1F
100
AcDbEntity
  8
Sichtbare_Kanten_TC_020513_DIN_
  6
Continuous
 62
     7
100
AcDbLine
 10
102.814959817108
 20
130.564031123534
 30
0.0
 11
104.689959817108
 21
130.564031123534
 31
0.0
  0
LINE
  5
1BD
330
1F
100
AcDbEntity
  8
Sichtbare_Kanten_TC_020513_DIN_
  6
Continuous
 62
     7
100
AcDbLine
 10
104.689959817108
 20
129.814031123534
 30
0.0
 11
102.814959817108
 21
129.814031123534
 31
0.0
  0
LINE
  5
1BE
330
1F
100
AcDbEntity
  8
Sichtbare_Kanten_TC_020513_DIN_
  6
Continuous
 62
     7
100
AcDbLine
 10
102.814959817108
 20
129.814031123534
 30
0.0
 11
102.814959817108
 21
128.242877010435
 31
0.0
  0
LINE
  5
1BF
330
1F
100
AcDbEntity
  8
Sichtbare_Kanten_TC_020513_DIN_
  6
Continuous
 62
     7
100
AcDbLine
 10
102.814959817108
 20
128.242877010435
 30
0.0
 11
104.502563897049
 21
129.216494748862
 31
0.0
  0
LINE
  5
1C0
330
1F
100
AcDbEntity
  8
Sichtbare_Kanten_TC_020513_DIN_
  6
Continuous
 62
     7
100
AcDbLine
 10
104.877355737166
 20
128.566855559326
 30
0.0
 11
102.627355737166
 21
127.268778636249
 31
0.0
  0
LINE
  5
1C1
330
1F
100
AcDbEntity
  8
Sichtbare_Kanten_TC_020513_DIN_
  6
Continuous
 62
     7
100
AcDbLine
 10
102.064959817108
 20
127.593598231017
 30
0.0
 11
102.064959817108
 21
132.784464016051
 31
0.0
  0
LINE
  5
1C2
330
1F
100
AcDbEntity
  8
0
  6
Continuous
 62
     7
100
AcDbLine
 10
222.439959816898
 20
104.439031123979
 30
0.0
 11
216.439959817212
 21
104.439031123979
 31
0.0
  0
LINE
  5
1C3
330
1F
100
AcDbEntity
  8
0
  6
Continuous
 62
     7
100
AcDbLine
 10
69.4399598171081
 20
104.439031123532
 30
0.0
 11
69.4399598171081
 21
102.939031123532
 31
0.0
  0
LINE
  5
1C4
330
1F
100
AcDbEntity
  8
0
  6
Continuous
 62
     7
100
AcDbLine
 10
69.4399598171081
 20
104.439031123532
 30
0.0
 11
69.4399598171081
 21
106.11372431584
 31
0.0
  0
LINE
  5
1C5
330
1F
100
AcDbEntity
  8
0
  6
Continuous
 62
     7
100
AcDbLine
 10
75.4399598171081
 20
104.439031123534
 30
0.0
 11
69.4399598171081
 21
104.439031123532
 31
0.0
  0
LINE
  5
1C6
330
1F
100
AcDbEntity
  8
0
  6
Continuous
 62
     7
100
AcDbLine
 10
75.4399598171081
 20
103.739031123534
 30
0.0
 11
70.1399598171082
 21
103.739031123534
 31
0.0
  0
LINE
  5
1C7
330
1F
100
AcDbEntity
  8
0
  6
Continuous
 62
     7
100
AcDbLine
 10
70.1399598167941
 20
103.639031123848
 30
0.0
 11
70.1399598171082
 21
103.739031123534
 31
0.0
  0
LINE
  5
1C8
330
1F
100
AcDbEntity
  8
0
  6
Continuous
 62
     7
100
AcDbLine
 10
70.1399598167941
 20
103.639031123848
 30
0.0
 11
75.4399598171081
 21
103.639031123534
 31
0.0
  0
LINE
  5
1C9
330
1F
100
AcDbEntity
  8
0
  6
Continuous
 62
     7
100
AcDbLine
 10
69.4399598171081
 20
102.939031123532
 30
0.0
 11
75.4399598171081
 21
102.939031123534
 31
0.0
  0
LINE
  5
1CA
330
1F
100
AcDbEntity
  8
0
  6
Continuous
 62
     7
100
AcDbLine
 10
70.1399598171082
 20
103.739031123534
 30
0.0
 11
69.4399598171081
 21
104.439031123532
 31
0.0
  0
LINE
  5
1CB
330
1F
100
AcDbEntity
  8
0
  6
Continuous
 62
     7
100
AcDbLine
 10
70.1399598167941
 20
103.639031123848
 30
0.0
 11
69.4399598171081
 21
102.939031123532
 31
0.0
  0
LINE
  5
1CC
330
1F
100
AcDbEntity
  8
0
  6
Continuous
 62
     7
100
AcDbLine
 10
69.4399598171081
 20
101.939031123848
 30
0.0
 11
69.4399598171081
 21
102.939031123532
 31
0.0
  0
LINE
  5
1CD
330
1F
100
AcDbEntity
  8
0
  6
Continuous
 62
     7
100
AcDbLine
 10
75.4399598171081
 20
101.939031123534
 30
0.0
 11
69.4399598171081
 21
101.939031123848
 31
0.0
  0
LINE
  5
1CE
330
1F
100
AcDbEntity
  8
0
  6
Continuous
 62
     7
100
AcDbLine
 10
75.4399598171081
 20
101.239031123534
 30
0.0
 11
70.1399598171082
 21
101.239031123534
 31
0.0
  0
LINE
  5
1CF
330
1F
100
AcDbEntity
  8
0
  6
Continuous
 62
     7
100
AcDbLine
 10
70.1399598171082
 20
101.139031123534
 30
0.0
 11
70.1399598171082
 21
101.239031123534
 31
0.0
  0
LINE
  5
1D0
330
1F
100
AcDbEntity
  8
0
  6
Continuous
 62
     7
100
AcDbLine
 10
69.4399598171081
 20
100.439031123532
 30
0.0
 11
75.4399598171081
 21
100.439031123534
 31
0.0
  0
LINE
  5
1D1
330
1F
100
AcDbEntity
  8
0
  6
Continuous
 62
     7
100
AcDbLine
 10
70.1399598171082
 20
101.139031123534
 30
0.0
 11
75.4399598171081
 21
101.139031123534
 31
0.0
  0
LINE
  5
1D2
330
1F
100
AcDbEntity
  8
0
  6
Continuous
 62
     7
100
AcDbLine
 10
69.4399598171081
 20
101.939031123848
 30
0.0
 11
69.4399598171081
 21
100.439031123532
 31
0.0
  0
LINE
  5
1D3
330
1F
100
AcDbEntity
  8
0
  6
Continuous
 62
     7
100
AcDbLine
 10
70.1399598171082
 20
101.239031123534
 30
0.0
 11
69.4399598171081
 21
101.939031123848
 31
0.0
  0
LINE
  5
1D4
330
1F
100
AcDbEntity
  8
0
  6
Continuous
 62
     7
100
AcDbLine
 10
70.1399598171082
 20
101.139031123534
 30
0.0
 11
69.4399598171081
 21
100.439031123532
 31
0.0
  0
LINE
  5
1D5
330
1F
100
AcDbEntity
  8
0
  6
Continuous
 62
     7
100
AcDbLine
 10
84.0674385540811
 20
155.189031123534
 30
0.0
 11
114.812481080135
 21
155.189031123534
 31
0.0
  0
LINE
  5
1D6
330
1F
100
AcDbEntity
  8
0
  6
Continuous
 62
     7
100
AcDbLine
 10
84.0674385540811
 20
155.189031123534
 30
0.0
 11
80.5024845596641
 21
155.189031123534
 31
0.0
  0
LINE
  5
1D7
330
1F
100
AcDbEntity
  8
0
  6
Continuous
 62
     7
100
AcDbLine
 10
120.207631899816
 20
154.392081205237
 30
0.0
 11
121.4606772805069
 21
147.917644046611
 31
0.0
  0
LINE
  5
1EA
330
1F
100
AcDbEntity
  8
1
  6
Continuous
 62
     2
100
AcDbLine
 10
121.4606772805069
 20
147.917644046611
 30
0.0
 11
121.4865330249909
 21
147.9226480987619
 31
0.0
  0
LINE
  5
1EB
330
1F
100
AcDbEntity
  8
0
  6
Continuous
 62
     7
100
AcDbLine
 10
121.4606772805069
 20
147.917644046611
 30
0.0
 11
126.2109637169699
 21
123.3730972231
 31
0.0
  0
LINE
  5
1EC
330
1F
100
AcDbEntity
  8
1
  6
Continuous
 62
     2
100
AcDbLine
 10
126.2109637169699
 20
123.3730972231
 30
0.0
 11
126.2663887155426
 21
123.383824030193
 31
0.0
  0
LINE
  5
1ED
330
1F
100
AcDbEntity
  8
0
  6
Continuous
 62
     7
100
AcDbLine
 10
126.2109637169699
 20
123.3730972231
 30
0.0
 11
129.33063892065
 21
107.253855755235
 31
0.0
  0
ARC
  5
1EE
330
1F
100
AcDbEntity
  8
0
  6
Continuous
 62
     7
100
AcDbCircle
 10
123.439959817108
 20
106.11372431584
 30
0.0
 40
5.999999999999986
100
AcDbArc
 50
0.0
 51
10.95406264339617
  0
ARC
  5
1EF
330
1F
100
AcDbEntity
  8
0
  6
Continuous
 62
     7
100
AcDbCircle
 10
80.5024845596662
 20
152.689031123533
 30
0.0
 40
2.500000000000995
100
AcDbArc
 50
90.0000000000482
 51
137.0609455808781
  0
ARC
  5
1F0
330
1F
100
AcDbEntity
  8
0
  6
Continuous
 62
     7
100
AcDbCircle
 10
118.37743507455
 20
152.689031123533
 30
0.0
 40
2.500000000001144
100
AcDbArc
 50
42.93905441911568
 51
89.99999999995408
  0
ARC
  5
1F1
330
1F
100
AcDbEntity
  8
0
  6
Continuous
 62
     7
100
AcDbCircle
 10
181.939649923661
 20
152.683461755853
 30
0.0
 40
2.499693832948683
100
AcDbArc
 50
173.6016806100612
 51
179.9010661002457
  0
ARC
  5
1F2
330
1F
100
AcDbEntity
  8
0
  6
Continuous
 62
     7
100
AcDbCircle
 10
181.940301623782
 20
152.689337471114
 30
0.0
 40
2.499693675924219
100
AcDbArc
 50
90.00783458940447
 51
173.7371844827991
  0
ARC
  5
1F3
330
1F
100
AcDbEntity
  8
0
  6
Continuous
 62
     7
100
AcDbCircle
 10
219.939959817218
 20
152.689031123665
 30
0.0
 40
2.5
100
AcDbArc
 50
0.0
 51
6.27075800603054
  0
ARC
  5
1F4
330
1F
100
AcDbEntity
  8
0
  6
Continuous
 62
     7
100
AcDbCircle
 10
219.939959817218
 20
152.689031123665
 30
0.0
 40
2.499999999999563
100
AcDbArc
 50
6.27075800603054
 51
90.0
  0
ARC
  5
1F5
330
1F
100
AcDbEntity
  8
Sichtbare_Kanten_TC_020513_DIN_
  6
Continuous
 62
     7
100
AcDbCircle
 10
97.9399598171081
 20
128.502252077171
 30
0.0
 40
0.375
100
AcDbArc
 50
180.0
 51
0.0
  0
ARC
  5
1F6
330
1F
100
AcDbEntity
  8
Sichtbare_Kanten_TC_020513_DIN_
  6
Continuous
 62
     7
100
AcDbCircle
 10
97.9399598171081
 20
133.649848631436
 30
0.0
 40
0.3749999999992797
100
AcDbArc
 50
35.90957617705609
 51
180.0
  0
ARC
  5
1F7
330
1F
100
AcDbEntity
  8
Sichtbare_Kanten_TC_020513_DIN_
  6
Continuous
 62
     7
100
AcDbCircle
 10
100.939959817108
 20
133.649848631436
 30
0.0
 40
0.375
100
AcDbArc
 50
0.0
 51
144.0904238230432
  0
ARC
  5
1F8
330
1F
100
AcDbEntity
  8
Sichtbare_Kanten_TC_020513_DIN_
  6
Continuous
 62
     7
100
AcDbCircle
 10
100.939959817108
 20
126.728213615633
 30
0.0
 40
0.375
100
AcDbArc
 50
180.0
 51
0.0
  0
ARC
  5
1F9
330
1F
100
AcDbEntity
  8
Sichtbare_Kanten_TC_020513_DIN_
  6
Continuous
 62
     7
100
AcDbCircle
 10
96.3649598171079
 20
132.741194785282
 30
0.0
 40
0.375
100
AcDbArc
 50
0.0
 51
180.0
  0
ARC
  5
1FA
330
1F
100
AcDbEntity
  8
Sichtbare_Kanten_TC_020513_DIN_
  6
Continuous
 62
     7
100
AcDbCircle
 10
99.4399598171081
 20
125.862829000248
 30
0.0
 40
0.3750000000000124
100
AcDbArc
 50
240.0183606310791
 51
60.01836063123893
  0
ARC
  5
1FB
330
1F
100
AcDbEntity
  8
Sichtbare_Kanten_TC_020513_DIN_
  6
Continuous
 62
     7
100
AcDbCircle
 10
96.3649598171079
 20
127.636867461786
 30
0.0
 40
0.375
100
AcDbArc
 50
180.0
 51
240.0183606310923
  0
ARC
  5
1FC
330
1F
100
AcDbEntity
  8
Sichtbare_Kanten_TC_020513_DIN_
  6
Continuous
 62
     7
100
AcDbCircle
 10
94.8649598171079
 20
128.502252077171
 30
0.0
 40
0.375
100
AcDbArc
 50
180.0
 51
0.0
  0
ARC
  5
1FD
330
1F
100
AcDbEntity
  8
Sichtbare_Kanten_TC_020513_DIN_
  6
Continuous
 62
     7
100
AcDbCircle
 10
94.8649598171079
 20
131.875810169897
 30
0.0
 40
0.375
100
AcDbArc
 50
0.0
 51
180.0
  0
ARC
  5
1FE
330
1F
100
AcDbEntity
  8
Sichtbare_Kanten_TC_020513_DIN_
  6
Continuous
 62
     7
100
AcDbCircle
 10
102.439959817108
 20
132.784464016051
 30
0.0
 40
0.3749999999995082
100
AcDbArc
 50
60.01836063121259
 51
180.0
  0
ARC
  5
1FF
330
1F
100
AcDbEntity
  8
Sichtbare_Kanten_TC_020513_DIN_
  6
Continuous
 62
     7
100
AcDbCircle
 10
104.689959817108
 20
131.486387092974
 30
0.0
 40
0.3750000000000124
100
AcDbArc
 50
240.0183606310791
 51
60.01836063121041
  0
ARC
  5
200
330
1F
100
AcDbEntity
  8
Sichtbare_Kanten_TC_020513_DIN_
  6
Continuous
 62
     7
100
AcDbCircle
 10
104.689959817108
 20
130.189031123534
 30
0.0
 40
0.375
100
AcDbArc
 50
270.0
 51
90.0
  0
ARC
  5
201
330
1F
100
AcDbEntity
  8
Sichtbare_Kanten_TC_020513_DIN_
  6
Continuous
 62
     7
100
AcDbCircle
 10
104.689959817108
 20
128.891675154094
 30
0.0
 40
0.3749999999995082
100
AcDbArc
 50
299.9816393687874
 51
119.9816393689209
  0
ARC
  5
202
330
1F
100
AcDbEntity
  8
Sichtbare_Kanten_TC_020513_DIN_
  6
Continuous
 62
     7
100
AcDbCircle
 10
102.439959817108
 20
127.593598231017
 30
0.0
 40
0.375
100
AcDbArc
 50
180.0
 51
299.9816393687874
  0
ARC
  5
203
330
1F
100
AcDbEntity
  8
0
  6
Continuous
 62
     7
100
AcDbCircle
 10
75.4399598171081
 20
106.11372431584
 30
0.0
 40
5.999999999999881
100
AcDbArc
 50
169.0459373566031
 51
180.0
  0
CIRCLE
  5
204
330
1F
100
AcDbEntity
  8
0
  6
Continuous
 62
     7
100
AcDbCircle
 10
200.939959817211
 20
90.689031123667
 30
0.0
 40
2.5
  0
CIRCLE
  5
205
330
1F
100
AcDbEntity
  8
0
  6
Continuous
 62
     7
100
AcDbCircle
 10
200.939959817211
 20
90.689031123667
 30
0.0
 40
4.0
  0
SPLINE
  5
206
330
1F
100
AcDbEntity
  8
0
  6
Continuous
 62
     7
100
AcDbSpline
210
0.0
220
0.0
230
1.0
 70
     8
 71
     3
 72
     9
 73
     5
 74
     3
 42
0.000000001
 43
0.0000000001
 44
0.00000001
 40
0.0
 40
0.0
 40
0.0
 40
0.0
 40
1.68960062332904
 40
3.381397059574669
 40
3.381397059574669
 40
3.381397059574669
 40
3.381397059574669
 10
125.15839867115
 20
114.689031123534
 30
0.0
 10
124.6684396517975
 20
114.3936461056405
 30
0.0
 10
123.6878848526988
 20
113.8024922042151
 30
0.0
 10
122.5453898587692
 20
113.7268678470597
 30
0.0
 10
121.973771402716
 20
113.689031123534
 30
0.0
 11
125.15839867115
 21
114.689031123534
 31
0.0
 11
123.6480891233591
 21
113.9315911314516
 31
0.0
 11
121.973771402716
 21
113.689031123534
 31
0.0
  0
SPLINE
  5
207
330
1F
100
AcDbEntity
  8
0
  6
Continuous
 62
     7
100
AcDbSpline
210
0.0
220
0.0
230
1.0
 70
     8
 71
     3
 72
     9
 73
     5
 74
     3
 42
0.000000001
 43
0.0000000001
 44
0.00000001
 40
0.0
 40
0.0
 40
0.0
 40
0.0
 40
1.869744281398015
 40
3.740801433568979
 40
3.740801433568979
 40
3.740801433568979
 40
3.740801433568979
 10
115.586674628522
 20
146.689031123534
 30
0.0
 10
116.2145104665882
 20
146.6394441500212
 30
0.0
 10
117.470622983611
 20
146.5402353654293
 30
0.0
 10
118.5956751614705
 20
145.9728322555834
 30
0.0
 10
119.15839867115
 20
145.689031123534
 30
0.0
 11
115.586674628522
 21
146.689031123534
 31
0.0
 11
117.4374400509853
 21
146.4233037563036
 31
0.0
 11
119.15839867115
 21
145.689031123534
 31
0.0
  0
SPLINE
  5
208
330
1F
100
AcDbEntity
  8
0
  6
Continuous
 62
     7
100
AcDbSpline
210
0.0
220
0.0
230
1.0
 70
     8
 71
     3
 72
     9
 73
     5
 74
     3
 42
0.000000001
 43
0.0000000001
 44
0.00000001
 40
0.0
 40
0.0
 40
0.0
 40
0.0
 40
1.871057152171372
 40
3.740801433569053
 40
3.740801433569053
 40
3.740801433569053
 40
3.740801433569053
 10
79.7215209630659
 20
145.689031123534
 30
0.0
 10
80.28424447274557
 20
145.9728322555833
 30
0.0
 10
81.40929665060513
 20
146.5402353654291
 30
0.0
 10
82.66540916762793
 20
146.6394441500212
 30
0.0
 10
83.293245005694
 20
146.689031123534
 30
0.0
 11
79.7215209630659
 21
145.689031123534
 31
0.0
 11
81.44247958323109
 21
146.4233037563036
 31
0.0
 11
83.293245005694
 21
146.689031123534
 31
0.0
  0
SPLINE
  5
209
330
1F
100
AcDbEntity
  8
0
  6
Continuous
 62
     7
100
AcDbSpline
210
0.0
220
0.0
230
1.0
 70
     8
 71
     3
 72
     9
 73
     5
 74
     3
 42
0.000000001
 43
0.0000000001
 44
0.00000001
 40
0.0
 40
0.0
 40
0.0
 40
0.0
 40
1.691796436245756
 40
3.381397059575215
 40
3.381397059575215
 40
3.381397059575215
 40
3.381397059575215
 10
76.9061482315005
 20
113.689031123534
 30
0.0
 10
76.33452977544725
 20
113.7268678470597
 30
0.0
 10
75.19203478151746
 20
113.8024922042151
 30
0.0
 10
74.21147998241862
 20
114.3936461056405
 30
0.0
 10
73.7215209630659
 20
114.689031123534
 30
0.0
 11
76.9061482315005
 21
113.689031123534
 31
0.0
 11
75.23183051085725
 21
113.9315911314516
 31
0.0
 11
73.7215209630659
 21
114.689031123534
 31
0.0
  0
LWPOLYLINE
  5
20A
330
1F
100
AcDbEntity
  8
0
  6
Continuous
 62
     7
 60
     1
100
AcDbPolyline
 90
        2
 70
     0
 43
0.0
 10
-1756.10484890071
 20
3121.47192667302
 10
-1720.02114458996
 20
3098.03109814489
  0
LWPOLYLINE
  5
20B
330
1F
100
AcDbEntity
  8
0
  6
Continuous
 62
     7
 60
     1
100
AcDbPolyline
 90
        2
 70
     0
 43
0.0
 10
-1639.71062991842
 20
3121.47192667302
 10
-1603.62692560768
 20
3103.03109814489
  0
LWPOLYLINE
  5
20C
330
1F
100
AcDbEntity
  8
0
  6
Continuous
 62
     7
 60
     1
100
AcDbPolyline
 90
        2
 70
     0
 43
0.0
 10
-1354.71062991842
 20
3121.47192667302
 10
-1318.62692560767
 20
3130.93109814488
  0
LWPOLYLINE
  5
20D
330
1F
100
AcDbEntity
  8
0
  6
Continuous
 62
     7
 60
     1
100
AcDbPolyline
 90
        2
 70
     0
 43
0.0
 10
-1749.87742954587
 20
3117.2974811085
 10
-1713.79372523512
 20
3093.85665258037
  0
LWPOLYLINE
  5
20E
330
1F
100
AcDbEntity
  8
0
  6
Continuous
 62
     7
 60
     1
100
AcDbPolyline
 90
        2
 70
     0
 43
0.0
 10
-1633.48321056358
 20
3117.2974811085
 10
-1597.39950625284
 20
3098.85665258037
  0
LWPOLYLINE
  5
20F
330
1F
100
AcDbEntity
  8
0
  6
Continuous
 62
     7
 60
     1
100
AcDbPolyline
 90
        2
 70
     0
 43
0.0
 10
-1348.48321056358
 20
3117.2974811085
 10
-1312.39950625283
 20
3126.75665258036
  0
LWPOLYLINE
  5
210
330
1F
100
AcDbEntity
  8
0
  6
Continuous
 62
     7
 60
     1
100
AcDbPolyline
 90
        2
 70
     0
 43
0.0
 10
-1749.87742954587
 20
3117.2974811085
 10
-1713.79372523512
 20
3093.85665258037
  0
LWPOLYLINE
  5
211
330
1F
100
AcDbEntity
  8
0
  6
Continuous
 62
     7
 60
     1
100
AcDbPolyline
 90
        2
 70
     0
 43
0.0
 10
-1633.48321056358
 20
3117.2974811085
 10
-1597.39950625284
 20
3098.85665258037
  0
LWPOLYLINE
  5
212
330
1F
100
AcDbEntity
  8
0
  6
Continuous
 62
     7
 60
     1
100
AcDbPolyline
 90
        2
 70
     0
 43
0.0
 10
-1348.48321056358
 20
3117.2974811085
 10
-1312.39950625283
 20
3126.75665258036
  0
LWPOLYLINE
  5
213
330
1F
100
AcDbEntity
  8
0
  6
Continuous
 62
     7
 60
     1
100
AcDbPolyline
 90
        2
 70
     0
 43
0.0
 10
-1768.15184727261
 20
3115.96492950781
 10
-1732.06814296186
 20
3092.52410097968
  0
LWPOLYLINE
  5
214
330
1F
100
AcDbEntity
  8
0
  6
Continuous
 62
     7
 60
     1
100
AcDbPolyline
 90
        2
 70
     0
 43
0.0
 10
-1651.75762829032
 20
3115.96492950781
 10
-1615.67392397958
 20
3097.52410097968
  0
LWPOLYLINE
  5
215
330
1F
100
AcDbEntity
  8
0
  6
Continuous
 62
     7
 60
     1
100
AcDbPolyline
 90
        2
 70
     0
 43
0.0
 10
-1366.75762829032
 20
3115.96492950781
 10
-1330.67392397957
 20
3125.42410097967
  0
LWPOLYLINE
  5
216
330
1F
100
AcDbEntity
  8
0
  6
Continuous
 62
     7
 60
     1
100
AcDbPolyline
 90
        2
 70
     0
 43
0.0
 10
-1761.92442791777
 20
3111.7904839433
 10
-1725.84072360702
 20
3088.34965541517
  0
LWPOLYLINE
  5
217
330
1F
100
AcDbEntity
  8
0
  6
Continuous
 62
     7
 60
     1
100
AcDbPolyline
 90
        2
 70
     0
 43
0.0
 10
-1645.53020893548
 20
3111.7904839433
 10
-1609.44650462474
 20
3093.34965541517
  0
LWPOLYLINE
  5
218
330
1F
100
AcDbEntity
  8
0
  6
Continuous
 62
     7
 60
     1
100
AcDbPolyline
 90
        2
 70
     0
 43
0.0
 10
-1360.53020893548
 20
3111.7904839433
 10
-1324.44650462473
 20
3121.24965541516
  0
LWPOLYLINE
  5
219
330
1F
100
AcDbEntity
  8
0
  6
Continuous
 62
     7
 60
     1
100
AcDbPolyline
 90
        2
 70
     0
 43
0.0
 10
-1761.92442791777
 20
3111.7904839433
 10
-1725.84072360702
 20
3088.34965541517
  0
LWPOLYLINE
  5
21A
330
1F
100
AcDbEntity
  8
0
  6
Continuous
 62
     7
 60
     1
100
AcDbPolyline
 90
        2
 70
     0
 43
0.0
 10
-1645.53020893548
 20
3111.7904839433
 10
-1609.44650462474
 20
3093.34965541517
  0
LWPOLYLINE
  5
21B
330
1F
100
AcDbEntity
  8
0
  6
Continuous
 62
     7
 60
     1
100
AcDbPolyline
 90
        2
 70
     0
 43
0.0
 10
-1360.53020893548
 20
3111.7904839433
 10
-1324.44650462473
 20
3121.24965541516
  0
DIMENSION
  5
227
330
1F
100
AcDbEntity
  8
1
100
AcDbDimension
  2
*D3
 10
129.4399598171081
 20
73.1890311235343
 30
0.0
 11
99.4399598171081
 21
76.6890311235343
 31
0.0
 70
    32
  1
60
 71
     5
 42
-1.0
 53
0.00013888888889
  3
ME10_DIM_10
100
AcDbAlignedDimension
 13
69.4399598171081
 23
83.1890311235336
 33
0.0
 14
129.439959817108
 24
83.1890311235336
 34
0.0
100
AcDbRotatedDimension
  0
DIMENSION
  5
232
330
1F
100
AcDbEntity
  8
1
100
AcDbDimension
  2
*D4
 10
167.510578564211
 20
155.189031123669
 30
0.0
 11
164.010578564211
 21
119.189031123669
 31
0.0
 70
    32
  1
72
 71
     5
 42
-1.0
 53
90.0
  3
ME10_DIM_11
100
AcDbAlignedDimension
 13
179.43995981721
 23
83.1890311236695
 33
0.0
 14
185.439959817218
 24
155.189031123669
 34
0.0
 50
90.0
100
AcDbRotatedDimension
  0
DIMENSION
  5
23D
330
1F
100
AcDbEntity
  8
1
100
AcDbDimension
  2
*D5
 10
179.43995981721
 20
73.1890311235343
 30
0.0
 11
200.93995981721
 21
76.6890311235343
 31
0.0
 70
    32
  1
43
 71
     5
 42
-1.0
 53
0.00013888888889
  3
ME10_DIM_12
100
AcDbAlignedDimension
 13
222.43995981721
 23
83.1890311236646
 33
0.0
 14
179.43995981721
 24
83.1890311236695
 34
0.0
100
AcDbRotatedDimension
  0
DIMENSION
  5
248
330
1F
100
AcDbEntity
  8
1
100
AcDbDimension
  2
*D6
 10
129.2701528739188
 20
149.429069221988
 30
0.0
 11
135.0815326474419
 21
137.8218359113373
 31
0.0
 70
    33
  1
M25
 71
     5
 42
-1.0
 53
-79.04654715637811
  3
ME10_DIM_13
100
AcDbAlignedDimension
 13
126.2109637169699
 23
123.3730972231
 33
0.0
 14
121.4606772805069
 24
147.917644046611
 34
0.0
  0
ENDSEC
  0
SECTION
  2
OBJECTS
  0
DICTIONARY
  5
C
330
0
100
AcDbDictionary
281
     1
  3
ACAD_GROUP
350
D
  3
ACAD_LAYOUT
350
1A
  3
ACAD_MATERIAL
350
3B
  3
ACAD_MLEADERSTYLE
350
24B
  3
ACAD_MLINESTYLE
350
17
  3
ACAD_PLOTSETTINGS
350
19
  3
ACAD_PLOTSTYLENAME
350
E
  3
ACAD_VISUALSTYLE
350
2A
  3
AcDbVariableDictionary
350
249
  0
DICTIONARY
  5
D
102
{ACAD_REACTORS
330
C
102
}
330
C
100
AcDbDictionary
281
     1
  0
DICTIONARY
  5
1A
102
{ACAD_REACTORS
330
C
102
}
330
C
100
AcDbDictionary
281
     1
  3
Layout1
350
1E
  3
Layout2
350
26
  3
Model
350
22
  0
DICTIONARY
  5
3B
102
{ACAD_REACTORS
330
C
102
}
330
C
100
AcDbDictionary
281
     1
  3
ByBlock
350
3D
  3
ByLayer
350
3C
  3
Global
350
3E
  0
DICTIONARY
  5
24B
102
{ACAD_REACTORS
330
C
102
}
330
C
100
AcDbDictionary
281
     1
  0
DICTIONARY
  5
17
102
{ACAD_REACTORS
330
C
102
}
330
C
100
AcDbDictionary
281
     1
  3
Standard
350
18
  0
DICTIONARY
  5
19
102
{ACAD_REACTORS
330
C
102
}
330
C
100
AcDbDictionary
281
     1
  0
ACDBDICTIONARYWDFLT
  5
E
102
{ACAD_REACTORS
330
C
102
}
330
C
100
AcDbDictionary
281
     1
  3
Normal
350
F
100
AcDbDictionaryWithDefault
340
F
  0
DICTIONARY
  5
2A
102
{ACAD_REACTORS
330
C
102
}
330
C
100
AcDbDictionary
281
     1
  3
2dWireframe
350
2F
  3
3D Hidden
350
31
  3
3dWireframe
350
30
  3
Basic
350
32
  3
Brighten
350
36
  3
ColorChange
350
3A
  3
Conceptual
350
34
  3
Dim
350
35
  3
Facepattern
350
39
  3
Flat
350
2B
  3
FlatWithEdges
350
2C
  3
Gouraud
350
2D
  3
GouraudWithEdges
350
2E
  3
Linepattern
350
38
  3
Realistic
350
33
  3
Thicken
350
37
  0
DICTIONARY
  5
249
102
{ACAD_REACTORS
330
C
102
}
330
C
100
AcDbDictionary
281
     1
  3
DIMASSOC
350
24C
  3
HIDETEXT
350
24D
  0
LAYOUT
  5
1E
102
{ACAD_REACTORS
330
1A
102
}
330
1A
100
AcDbPlotSettings
  1

  2
none_device
  4

  6

 40
0.0
 41
0.0
 42
0.0
 43
0.0
 44
0.0
 45
0.0
 46
0.0
 47
0.0
 48
0.0
 49
0.0
140
0.0
141
0.0
142
1.0
143
1.0
 70
   688
 72
     0
 73
     0
 74
     5
  7

 75
    16
147
1.0
148
0.0
149
0.0
100
AcDbLayout
  1
Layout1
 70
     1
 71
     1
 10
0.0
 20
0.0
 11
12.0
 21
9.0
 12
0.0
 22
0.0
 32
0.0
 14
1.00000000000000E+20
 24
1.00000000000000E+20
 34
1.00000000000000E+20
 15
-1.00000000000000E+20
 25
-1.00000000000000E+20
 35
-1.00000000000000E+20
146
0.0
 13
0.0
 23
0.0
 33
0.0
 16
1.0
 26
0.0
 36
0.0
 17
0.0
 27
1.0
 37
0.0
 76
     0
330
1B
  0
LAYOUT
  5
26
102
{ACAD_REACTORS
330
1A
102
}
330
1A
100
AcDbPlotSettings
  1

  2
none_device
  4

  6

 40
0.0
 41
0.0
 42
0.0
 43
0.0
 44
0.0
 45
0.0
 46
0.0
 47
0.0
 48
0.0
 49
0.0
140
0.0
141
0.0
142
1.0
143
1.0
 70
   688
 72
     0
 73
     0
 74
     5
  7

 75
    16
147
1.0
148
0.0
149
0.0
100
AcDbLayout
  1
Layout2
 70
     1
 71
     2
 10
0.0
 20
0.0
 11
0.0
 21
0.0
 12
0.0
 22
0.0
 32
0.0
 14
0.0
 24
0.0
 34
0.0
 15
0.0
 25
0.0
 35
0.0
146
0.0
 13
0.0
 23
0.0
 33
0.0
 16
1.0
 26
0.0
 36
0.0
 17
0.0
 27
1.0
 37
0.0
 76
     0
330
23
  0
LAYOUT
  5
22
102
{ACAD_REACTORS
330
1A
102
}
330
1A
100
AcDbPlotSettings
  1

  2
none_device
  4

  6

 40
0.0
 41
0.0
 42
0.0
 43
0.0
 44
0.0
 45
0.0
 46
0.0
 47
0.0
 48
0.0
 49
0.0
140
0.0
141
0.0
142
1.0
143
1.0
 70
  1712
 72
     0
 73
     0
 74
     0
  7

 75
     0
147
1.0
148
0.0
149
0.0
100
AcDbLayout
  1
Model
 70
     1
 71
     0
 10
0.0
 20
0.0
 11
12.0
 21
9.0
 12
0.0
 22
0.0
 32
0.0
 14
0.0
 24
0.0
 34
0.0
 15
297.0000000000001
 25
210.0000000000005
 35
0.0
146
0.0
 13
0.0
 23
0.0
 33
0.0
 16
1.0
 26
0.0
 36
0.0
 17
0.0
 27
1.0
 37
0.0
 76
     0
330
1F
331
29
  0
MATERIAL
  5
3D
102
{ACAD_REACTORS
330
3B
102
}
102
{ACAD_XDICTIONARY
360
270
102
}
330
3B
100
AcDbMaterial
  1
ByBlock
  0
MATERIAL
  5
3C
102
{ACAD_REACTORS
330
3B
102
}
102
{ACAD_XDICTIONARY
360
26E
102
}
330
3B
100
AcDbMaterial
  1
ByLayer
  0
MATERIAL
  5
3E
102
{ACAD_REACTORS
330
3B
102
}
102
{ACAD_XDICTIONARY
360
272
102
}
330
3B
100
AcDbMaterial
  1
Global
  0
MLINESTYLE
  5
18
102
{ACAD_REACTORS
330
17
102
}
330
17
100
AcDbMlineStyle
  2
Standard
 70
     0
  3

 62
   256
 51
90.0
 52
90.0
 71
     2
 49
0.5
 62
   256
  6
BYLAYER
 49
-0.5
 62
   256
  6
BYLAYER
  0
ACDBPLACEHOLDER
  5
F
102
{ACAD_REACTORS
330
E
102
}
330
E
  0
VISUALSTYLE
  5
2F
102
{ACAD_REACTORS
330
2A
102
}
102
{ACAD_XDICTIONARY
360
256
102
}
330
2A
100
AcDbVisualStyle
  2
2dWireframe
 70
     4
 71
     0
 72
     2
 73
     0
 90
        0
 40
-0.6
 41
-30.0
 62
     5
 63
     7
 74
     1
 91
        4
 64
     7
 65
   257
 75
     1
175
     1
 42
1.0
 92
        0
 66
   257
 43
1.0
 76
     1
 77
     6
 78
     2
 67
     7
 79
     5
170
     0
171
     0
290
     0
174
     0
 93
        1
 44
0.0
173
     0
291
     0
 45
0.0
1001
ACAD
1000
AcDbSavedByObjectVersion
1070
     0
  0
VISUALSTYLE
  5
31
102
{ACAD_REACTORS
330
2A
102
}
102
{ACAD_XDICTIONARY
360
25A
102
}
330
2A
100
AcDbVisualStyle
  2
3D Hidden
 70
     6
 71
     1
 72
     2
 73
     2
 90
        0
 40
-0.6
 41
-30.0
 62
     5
 63
     7
 74
     2
 91
        2
 64
     7
 65
   257
 75
     2
175
     1
 42
40.0
 92
        0
 66
   257
 43
1.0
 76
     1
 77
     6
 78
     2
 67
     7
 79
     3
170
     0
171
     0
290
     0
174
     0
 93
        1
 44
0.0
173
     0
291
     0
 45
0.0
1001
ACAD
1000
AcDbSavedByObjectVersion
1070
     0
  0
VISUALSTYLE
  5
30
102
{ACAD_REACTORS
330
2A
102
}
102
{ACAD_XDICTIONARY
360
258
102
}
330
2A
100
AcDbVisualStyle
  2
3dWireframe
 70
     5
 71
     0
 72
     2
 73
     0
 90
        0
 40
-0.6
 41
-30.0
 62
     5
 63
     7
 74
     1
 91
        4
 64
     7
 65
   257
 75
     1
175
     1
 42
1.0
 92
        0
 66
   257
 43
1.0
 76
     1
 77
     6
 78
     2
 67
     7
 79
     5
170
     0
171
     0
290
     0
174
     0
 93
        1
 44
0.0
173
     0
291
     0
 45
0.0
1001
ACAD
1000
AcDbSavedByObjectVersion
1070
     0
  0
VISUALSTYLE
  5
32
102
{ACAD_REACTORS
330
2A
102
}
102
{ACAD_XDICTIONARY
360
25C
102
}
330
2A
100
AcDbVisualStyle
  2
Basic
 70
     7
 71
     1
 72
     0
 73
     1
 90
        0
 40
-0.6
 41
-30.0
 62
     5
 63
     7
 74
     0
 91
        4
 64
     7
 65
   257
 75
     1
175
     1
 42
1.0
 92
        8
 66
     7
 43
1.0
 76
     1
 77
     6
 78
     2
 67
     7
 79
     5
170
     0
171
     0
290
     0
174
     0
 93
        1
 44
0.0
173
     0
291
     1
 45
0.0
1001
ACAD
1000
AcDbSavedByObjectVersion
1070
     0
  0
VISUALSTYLE
  5
36
102
{ACAD_REACTORS
330
2A
102
}
102
{ACAD_XDICTIONARY
360
264
102
}
330
2A
100
AcDbVisualStyle
  2
Brighten
 70
    12
 71
     2
 72
     2
 73
     0
 90
        0
 40
-0.6
 41
-30.0
 62
     5
 63
     7
 74
     1
 91
        4
 64
     7
 65
   257
 75
     1
175
     1
 42
1.0
 92
        8
 66
     7
 43
1.0
 76
     1
 77
     6
 78
     2
 67
     7
 79
     5
170
     0
171
     0
290
     0
174
     0
 93
        1
 44
50.0
173
     0
291
     1
 45
0.0
1001
ACAD
1000
AcDbSavedByObjectVersion
1070
     0
  0
VISUALSTYLE
  5
3A
102
{ACAD_REACTORS
330
2A
102
}
102
{ACAD_XDICTIONARY
360
26C
102
}
330
2A
100
AcDbVisualStyle
  2
ColorChange
 70
    16
 71
     2
 72
     2
 73
     3
 90
        0
 40
-0.6
 41
-30.0
 62
     5
 63
     8
 74
     1
 91
        4
 64
     7
 65
   257
 75
     1
175
     1
 42
1.0
 92
        8
 66
     8
 43
1.0
 76
     1
 77
     6
 78
     2
 67
     7
 79
     5
170
     0
171
     0
290
     0
174
     0
 93
        1
 44
0.0
173
     0
291
     1
 45
0.0
1001
ACAD
1000
AcDbSavedByObjectVersion
1070
     0
  0
VISUALSTYLE
  5
34
102
{ACAD_REACTORS
330
2A
102
}
102
{ACAD_XDICTIONARY
360
260
102
}
330
2A
100
AcDbVisualStyle
  2
Conceptual
 70
     9
 71
     3
 72
     2
 73
     0
 90
        0
 40
-0.6
 41
-30.0
 62
     5
 63
     7
 74
     2
 91
        2
 64
     7
 65
   257
 75
     1
175
     1
 42
40.0
 92
        8
 66
     7
 43
1.0
 76
     1
 77
     6
 78
     2
 67
     7
 79
     3
170
     0
171
     0
290
     0
174
     0
 93
        1
 44
0.0
173
     0
291
     0
 45
0.0
1001
ACAD
1000
AcDbSavedByObjectVersion
1070
     0
  0
VISUALSTYLE
  5
35
102
{ACAD_REACTORS
330
2A
102
}
102
{ACAD_XDICTIONARY
360
262
102
}
330
2A
100
AcDbVisualStyle
  2
Dim
 70
    11
 71
     2
 72
     2
 73
     0
 90
        0
 40
-0.6
 41
-30.0
 62
     5
 63
     7
 74
     1
 91
        4
 64
     7
 65
   257
 75
     1
175
     1
 42
1.0
 92
        8
 66
     7
 43
1.0
 76
     1
 77
     6
 78
     2
 67
     7
 79
     5
170
     0
171
     0
290
     0
174
     0
 93
        1
 44
-50.0
173
     0
291
     1
 45
0.0
1001
ACAD
1000
AcDbSavedByObjectVersion
1070
     0
  0
VISUALSTYLE
  5
39
102
{ACAD_REACTORS
330
2A
102
}
102
{ACAD_XDICTIONARY
360
26A
102
}
330
2A
100
AcDbVisualStyle
  2
Facepattern
 70
    15
 71
     2
 72
     2
 73
     0
 90
        0
 40
-0.6
 41
-30.0
 62
     5
 63
     7
 74
     1
 91
        4
 64
     7
 65
   257
 75
     1
175
     1
 42
1.0
 92
        8
 66
     7
 43
1.0
 76
     1
 77
     6
 78
     2
 67
     7
 79
     5
170
     0
171
     0
290
     0
174
     0
 93
        1
 44
0.0
173
     0
291
     1
 45
0.0
1001
ACAD
1000
AcDbSavedByObjectVersion
1070
     0
  0
VISUALSTYLE
  5
2B
102
{ACAD_REACTORS
330
2A
102
}
102
{ACAD_XDICTIONARY
360
24E
102
}
330
2A
100
AcDbVisualStyle
  2
Flat
 70
     0
 71
     2
 72
     1
 73
     1
 90
        2
 40
-0.6
 41
30.0
 62
     5
 63
     7
 74
     0
 91
        4
 64
     7
 65
   257
 75
     1
175
     1
 42
1.0
 92
        8
 66
     7
 43
1.0
 76
     1
 77
     6
 78
     2
 67
     7
 79
     5
170
     0
171
     0
290
     0
174
     0
 93
       13
 44
0.0
173
     0
291
     1
 45
0.0
1001
ACAD
1000
AcDbSavedByObjectVersion
1070
     0
  0
VISUALSTYLE
  5
2C
102
{ACAD_REACTORS
330
2A
102
}
102
{ACAD_XDICTIONARY
360
250
102
}
330
2A
100
AcDbVisualStyle
  2
FlatWithEdges
 70
     1
 71
     2
 72
     1
 73
     1
 90
        2
 40
-0.6
 41
30.0
 62
     5
 63
     7
 74
     1
 91
        4
 64
     7
 65
   257
 75
     1
175
     1
 42
1.0
 92
        0
 66
   257
 43
1.0
 76
     1
 77
     6
 78
     2
 67
     7
 79
     5
170
     0
171
     0
290
     0
174
     0
 93
       13
 44
0.0
173
     0
291
     1
 45
0.0
1001
ACAD
1000
AcDbSavedByObjectVersion
1070
     0
  0
VISUALSTYLE
  5
2D
102
{ACAD_REACTORS
330
2A
102
}
102
{ACAD_XDICTIONARY
360
252
102
}
330
2A
100
AcDbVisualStyle
  2
Gouraud
 70
     2
 71
     2
 72
     2
 73
     1
 90
        2
 40
-0.6
 41
30.0
 62
     5
 63
     7
 74
     0
 91
        4
 64
     7
 65
   257
 75
     1
175
     1
 42
1.0
 92
        0
 66
     7
 43
1.0
 76
     1
 77
     6
 78
     2
 67
     7
 79
     5
170
     0
171
     0
290
     0
174
     0
 93
       13
 44
0.0
173
     0
291
     1
 45
0.0
1001
ACAD
1000
AcDbSavedByObjectVersion
1070
     0
  0
VISUALSTYLE
  5
2E
102
{ACAD_REACTORS
330
2A
102
}
102
{ACAD_XDICTIONARY
360
254
102
}
330
2A
100
AcDbVisualStyle
  2
GouraudWithEdges
 70
     3
 71
     2
 72
     2
 73
     1
 90
        2
 40
-0.6
 41
30.0
 62
     5
 63
     7
 74
     1
 91
        4
 64
     7
 65
   257
 75
     1
175
     1
 42
1.0
 92
        0
 66
   257
 43
1.0
 76
     1
 77
     6
 78
     2
 67
     7
 79
     5
170
     0
171
     0
290
     0
174
     0
 93
       13
 44
0.0
173
     0
291
     1
 45
0.0
1001
ACAD
1000
AcDbSavedByObjectVersion
1070
     0
  0
VISUALSTYLE
  5
38
102
{ACAD_REACTORS
330
2A
102
}
102
{ACAD_XDICTIONARY
360
268
102
}
330
2A
100
AcDbVisualStyle
  2
Linepattern
 70
    14
 71
     2
 72
     2
 73
     0
 90
        0
 40
-0.6
 41
-30.0
 62
     5
 63
     7
 74
     1
 91
        4
 64
     7
 65
   257
 75
     7
175
     7
 42
1.0
 92
        8
 66
     7
 43
1.0
 76
     1
 77
     6
 78
     2
 67
     7
 79
     5
170
     0
171
     0
290
     0
174
     0
 93
        1
 44
0.0
173
     0
291
     1
 45
0.0
1001
ACAD
1000
AcDbSavedByObjectVersion
1070
     0
  0
VISUALSTYLE
  5
33
102
{ACAD_REACTORS
330
2A
102
}
102
{ACAD_XDICTIONARY
360
25E
102
}
330
2A
100
AcDbVisualStyle
  2
Realistic
 70
     8
 71
     2
 72
     2
 73
     0
 90
        0
 40
-0.6
 41
-30.0
 62
     5
 63
     7
 74
     1
 91
        0
 64
     7
 65
   257
 75
     1
175
     1
 42
1.0
 92
        8
 66
     8
 43
1.0
 76
     1
 77
     6
 78
     2
 67
     7
 79
     5
170
     0
171
     0
290
     0
174
     0
 93
       13
 44
0.0
173
     0
291
     0
 45
0.0
1001
ACAD
1000
AcDbSavedByObjectVersion
1070
     0
  0
VISUALSTYLE
  5
37
102
{ACAD_REACTORS
330
2A
102
}
102
{ACAD_XDICTIONARY
360
266
102
}
330
2A
100
AcDbVisualStyle
  2
Thicken
 70
    13
 71
     2
 72
     2
 73
     0
 90
        0
 40
-0.6
 41
-30.0
 62
     5
 63
     7
 74
     1
 91
        4
 64
     7
 65
   257
 75
     1
175
     1
 42
1.0
 92
       12
 66
     7
 43
1.0
 76
     1
 77
     6
 78
     2
 67
     7
 79
     5
170
     0
171
     0
290
     0
174
     0
 93
        1
 44
0.0
173
     0
291
     1
 45
0.0
1001
ACAD
1000
AcDbSavedByObjectVersion
1070
     0
  0
DICTIONARYVAR
  5
24C
102
{ACAD_REACTORS
330
249
102
}
330
249
100
DictionaryVariables
280
     0
  1
2
  0
DICTIONARYVAR
  5
24D
102
{ACAD_REACTORS
330
249
102
}
330
249
100
DictionaryVariables
280
     0
  1
1
  0
DICTIONARY
  5
270
330
3D
100
AcDbDictionary
280
     1
281
     1
  3
ACAD_XREC_ROUNDTRIP
360
271
  0
DICTIONARY
  5
26E
330
3C
100
AcDbDictionary
280
     1
281
     1
  3
ACAD_XREC_ROUNDTRIP
360
26F
  0
DICTIONARY
  5
272
330
3E
100
AcDbDictionary
280
     1
281
     1
  3
ACAD_XREC_ROUNDTRIP
360
273
  0
DICTIONARY
  5
256
330
2F
100
AcDbDictionary
280
     1
281
     1
  3
ACAD_XREC_ROUNDTRIP
360
257
  0
DICTIONARY
  5
25A
330
31
100
AcDbDictionary
280
     1
281
     1
  3
ACAD_XREC_ROUNDTRIP
360
25B
  0
DICTIONARY
  5
258
330
30
100
AcDbDictionary
280
     1
281
     1
  3
ACAD_XREC_ROUNDTRIP
360
259
  0
DICTIONARY
  5
25C
330
32
100
AcDbDictionary
280
     1
281
     1
  3
ACAD_XREC_ROUNDTRIP
360
25D
  0
DICTIONARY
  5
264
330
36
100
AcDbDictionary
280
     1
281
     1
  3
ACAD_XREC_ROUNDTRIP
360
265
  0
DICTIONARY
  5
26C
330
3A
100
AcDbDictionary
280
     1
281
     1
  3
ACAD_XREC_ROUNDTRIP
360
26D
  0
DICTIONARY
  5
260
330
34
100
AcDbDictionary
280
     1
281
     1
  3
ACAD_XREC_ROUNDTRIP
360
261
  0
DICTIONARY
  5
262
330
35
100
AcDbDictionary
280
     1
281
     1
  3
ACAD_XREC_ROUNDTRIP
360
263
  0
DICTIONARY
  5
26A
330
39
100
AcDbDictionary
280
     1
281
     1
  3
ACAD_XREC_ROUNDTRIP
360
26B
  0
DICTIONARY
  5
24E
330
2B
100
AcDbDictionary
280
     1
281
     1
  3
ACAD_XREC_ROUNDTRIP
360
24F
  0
DICTIONARY
  5
250
330
2C
100
AcDbDictionary
280
     1
281
     1
  3
ACAD_XREC_ROUNDTRIP
360
251
  0
DICTIONARY
  5
252
330
2D
100
AcDbDictionary
280
     1
281
     1
  3
ACAD_XREC_ROUNDTRIP
360
253
  0
DICTIONARY
  5
254
330
2E
100
AcDbDictionary
280
     1
281
     1
  3
ACAD_XREC_ROUNDTRIP
360
255
  0
DICTIONARY
  5
268
330
38
100
AcDbDictionary
280
     1
281
     1
  3
ACAD_XREC_ROUNDTRIP
360
269
  0
DICTIONARY
  5
25E
330
33
100
AcDbDictionary
280
     1
281
     1
  3
ACAD_XREC_ROUNDTRIP
360
25F
  0
DICTIONARY
  5
266
330
37
100
AcDbDictionary
280
     1
281
     1
  3
ACAD_XREC_ROUNDTRIP
360
267
  0
XRECORD
  5
271
102
{ACAD_REACTORS
330
270
102
}
330
270
100
AcDbXrecord
280
     1
102
MATERIAL
148
0.0
149
0.0
149
0.0
 93
        0
 94
      127
282
     0
 72
     1
 77
     1
171
     1
175
     1
179
     1
273
     0
  0
XRECORD
  5
26F
102
{ACAD_REACTORS
330
26E
102
}
330
26E
100
AcDbXrecord
280
     1
102
MATERIAL
148
0.0
149
0.0
149
0.0
 93
        0
 94
      127
282
     0
 72
     1
 77
     1
171
     1
175
     1
179
     1
273
     0
  0
XRECORD
  5
273
102
{ACAD_REACTORS
330
272
102
}
330
272
100
AcDbXrecord
280
     1
102
MATERIAL
148
0.0
149
0.0
149
0.0
 93
        0
 94
      127
282
     0
 72
     1
 77
     1
171
     1
175
     1
179
     1
273
     0
  0
XRECORD
  5
257
102
{ACAD_REACTORS
330
256
102
}
330
256
100
AcDbXrecord
280
     1
102
RTVSPropertyOp0
 70
     1
102
RTVSPropertyOp1
 70
     1
102
RTVSPropertyOp2
 70
     1
102
RTVSPropertyOp3
 70
     1
102
RTVSPropertyOp4
 70
     1
102
RTVSPropertyOp5
 70
     1
102
RTVSPropertyOp6
 70
     1
102
RTVSPropertyOp7
 70
     1
102
RTVSPropertyOp8
 70
     1
102
RTVSPropertyOp9
 70
     1
102
RTVSPropertyOp10
 70
     1
102
RTVSPropertyOp11
 70
     1
102
RTVSPropertyOp12
 70
     1
102
RTVSPropertyOp13
 70
     1
102
RTVSPropertyOp14
 70
     1
102
RTVSPropertyOp15
 70
     1
102
RTVSPropertyOp16
 70
     1
102
RTVSPropertyOp17
 70
     1
102
RTVSPropertyOp18
 70
     1
102
RTVSPropertyOp19
 70
     1
102
RTVSPropertyOp20
 70
     1
102
RTVSPropertyOp21
 70
     1
102
RTVSPropertyOp22
 70
     1
102
RTVSPropertyOp23
 70
     1
102
RTVSPropertyOp24
 70
     1
102
RTVSPropertyOp25
 70
     1
102
RTVSPropertyOp26
 70
     1
102
RTVSPropertyOp27
 70
     1
102
RTVSPropertyOp28
 70
     1
102
RTVSPropertyOp29
 70
     1
102
RTVSPropertyOp30
 70
     1
102
RTVSPropertyOp31
 70
     1
102
RTVSPropertyOp32
 70
     1
  0
XRECORD
  5
25B
102
{ACAD_REACTORS
330
25A
102
}
330
25A
100
AcDbXrecord
280
     1
102
RTVSPropertyOp0
 70
     1
102
RTVSPropertyOp1
 70
     1
102
RTVSPropertyOp2
 70
     1
102
RTVSPropertyOp3
 70
     1
102
RTVSPropertyOp4
 70
     1
102
RTVSPropertyOp5
 70
     1
102
RTVSPropertyOp6
 70
     1
102
RTVSPropertyOp7
 70
     1
102
RTVSPropertyOp8
 70
     1
102
RTVSPropertyOp9
 70
     1
102
RTVSPropertyOp10
 70
     1
102
RTVSPropertyOp11
 70
     1
102
RTVSPropertyOp12
 70
     1
102
RTVSPropertyOp13
 70
     1
102
RTVSPropertyOp14
 70
     1
102
RTVSPropertyOp15
 70
     1
102
RTVSPropertyOp16
 70
     1
102
RTVSPropertyOp17
 70
     1
102
RTVSPropertyOp18
 70
     1
102
RTVSPropertyOp19
 70
     1
102
RTVSPropertyOp20
 70
     1
102
RTVSPropertyOp21
 70
     1
102
RTVSPropertyOp22
 70
     1
102
RTVSPropertyOp23
 70
     1
102
RTVSPropertyOp24
 70
     1
102
RTVSPropertyOp25
 70
     1
102
RTVSPropertyOp26
 70
     1
102
RTVSPropertyOp27
 70
     1
102
RTVSPropertyOp28
 70
     1
102
RTVSPropertyOp29
 70
     1
102
RTVSPropertyOp30
 70
     1
102
RTVSPropertyOp31
 70
     1
102
RTVSPropertyOp32
 70
     1
  0
XRECORD
  5
259
102
{ACAD_REACTORS
330
258
102
}
330
258
100
AcDbXrecord
280
     1
102
RTVSPropertyOp0
 70
     1
102
RTVSPropertyOp1
 70
     1
102
RTVSPropertyOp2
 70
     1
102
RTVSPropertyOp3
 70
     1
102
RTVSPropertyOp4
 70
     1
102
RTVSPropertyOp5
 70
     1
102
RTVSPropertyOp6
 70
     1
102
RTVSPropertyOp7
 70
     1
102
RTVSPropertyOp8
 70
     1
102
RTVSPropertyOp9
 70
     1
102
RTVSPropertyOp10
 70
     1
102
RTVSPropertyOp11
 70
     1
102
RTVSPropertyOp12
 70
     1
102
RTVSPropertyOp13
 70
     1
102
RTVSPropertyOp14
 70
     1
102
RTVSPropertyOp15
 70
     1
102
RTVSPropertyOp16
 70
     1
102
RTVSPropertyOp17
 70
     1
102
RTVSPropertyOp18
 70
     1
102
RTVSPropertyOp19
 70
     1
102
RTVSPropertyOp20
 70
     1
102
RTVSPropertyOp21
 70
     1
102
RTVSPropertyOp22
 70
     1
102
RTVSPropertyOp23
 70
     1
102
RTVSPropertyOp24
 70
     1
102
RTVSPropertyOp25
 70
     1
102
RTVSPropertyOp26
 70
     1
102
RTVSPropertyOp27
 70
     1
102
RTVSPropertyOp28
 70
     1
102
RTVSPropertyOp29
 70
     1
102
RTVSPropertyOp30
 70
     1
102
RTVSPropertyOp31
 70
     1
102
RTVSPropertyOp32
 70
     1
  0
XRECORD
  5
25D
102
{ACAD_REACTORS
330
25C
102
}
330
25C
100
AcDbXrecord
280
     1
102
RTVSPropertyOp0
 70
     1
102
RTVSPropertyOp1
 70
     1
102
RTVSPropertyOp2
 70
     1
102
RTVSPropertyOp3
 70
     1
102
RTVSPropertyOp4
 70
     1
102
RTVSPropertyOp5
 70
     1
102
RTVSPropertyOp6
 70
     1
102
RTVSPropertyOp7
 70
     1
102
RTVSPropertyOp8
 70
     1
102
RTVSPropertyOp9
 70
     1
102
RTVSPropertyOp10
 70
     1
102
RTVSPropertyOp11
 70
     1
102
RTVSPropertyOp12
 70
     1
102
RTVSPropertyOp13
 70
     1
102
RTVSPropertyOp14
 70
     1
102
RTVSPropertyOp15
 70
     1
102
RTVSPropertyOp16
 70
     1
102
RTVSPropertyOp17
 70
     1
102
RTVSPropertyOp18
 70
     1
102
RTVSPropertyOp19
 70
     1
102
RTVSPropertyOp20
 70
     1
102
RTVSPropertyOp21
 70
     1
102
RTVSPropertyOp22
 70
     1
102
RTVSPropertyOp23
 70
     1
102
RTVSPropertyOp24
 70
     1
102
RTVSPropertyOp25
 70
     1
102
RTVSPropertyOp26
 70
     1
102
RTVSPropertyOp27
 70
     1
102
RTVSPropertyOp28
 70
     1
102
RTVSPropertyOp29
 70
     1
102
RTVSPropertyOp30
 70
     1
102
RTVSPropertyOp31
 70
     1
102
RTVSPropertyOp32
 70
     1
  0
XRECORD
  5
265
102
{ACAD_REACTORS
330
264
102
}
330
264
100
AcDbXrecord
280
     1
102
RTVSPropertyOp0
 70
     1
102
RTVSPropertyOp1
 70
     1
102
RTVSPropertyOp2
 70
     1
102
RTVSPropertyOp3
 70
     1
102
RTVSPropertyOp4
 70
     1
102
RTVSPropertyOp5
 70
     1
102
RTVSPropertyOp6
 70
     1
102
RTVSPropertyOp7
 70
     1
102
RTVSPropertyOp8
 70
     1
102
RTVSPropertyOp9
 70
     1
102
RTVSPropertyOp10
 70
     1
102
RTVSPropertyOp11
 70
     1
102
RTVSPropertyOp12
 70
     1
102
RTVSPropertyOp13
 70
     1
102
RTVSPropertyOp14
 70
     1
102
RTVSPropertyOp15
 70
     1
102
RTVSPropertyOp16
 70
     1
102
RTVSPropertyOp17
 70
     1
102
RTVSPropertyOp18
 70
     1
102
RTVSPropertyOp19
 70
     1
102
RTVSPropertyOp20
 70
     1
102
RTVSPropertyOp21
 70
     1
102
RTVSPropertyOp22
 70
     1
102
RTVSPropertyOp23
 70
     1
102
RTVSPropertyOp24
 70
     1
102
RTVSPropertyOp25
 70
     1
102
RTVSPropertyOp26
 70
     1
102
RTVSPropertyOp27
 70
     1
102
RTVSPropertyOp28
 70
     1
102
RTVSPropertyOp29
 70
     1
102
RTVSPropertyOp30
 70
     1
102
RTVSPropertyOp31
 70
     1
102
RTVSPropertyOp32
 70
     1
  0
XRECORD
  5
26D
102
{ACAD_REACTORS
330
26C
102
}
330
26C
100
AcDbXrecord
280
     1
102
RTVSPropertyOp0
 70
     1
102
RTVSPropertyOp1
 70
     1
102
RTVSPropertyOp2
 70
     1
102
RTVSPropertyOp3
 70
     1
102
RTVSPropertyOp4
 70
     1
102
RTVSPropertyOp5
 70
     1
102
RTVSPropertyOp6
 70
     1
102
RTVSPropertyOp7
 70
     1
102
RTVSPropertyOp8
 70
     1
102
RTVSPropertyOp9
 70
     1
102
RTVSPropertyOp10
 70
     1
102
RTVSPropertyOp11
 70
     1
102
RTVSPropertyOp12
 70
     1
102
RTVSPropertyOp13
 70
     1
102
RTVSPropertyOp14
 70
     1
102
RTVSPropertyOp15
 70
     1
102
RTVSPropertyOp16
 70
     1
102
RTVSPropertyOp17
 70
     1
102
RTVSPropertyOp18
 70
     1
102
RTVSPropertyOp19
 70
     1
102
RTVSPropertyOp20
 70
     1
102
RTVSPropertyOp21
 70
     1
102
RTVSPropertyOp22
 70
     1
102
RTVSPropertyOp23
 70
     1
102
RTVSPropertyOp24
 70
     1
102
RTVSPropertyOp25
 70
     1
102
RTVSPropertyOp26
 70
     1
102
RTVSPropertyOp27
 70
     1
102
RTVSPropertyOp28
 70
     1
102
RTVSPropertyOp29
 70
     1
102
RTVSPropertyOp30
 70
     1
102
RTVSPropertyOp31
 70
     1
102
RTVSPropertyOp32
 70
     1
  0
XRECORD
  5
261
102
{ACAD_REACTORS
330
260
102
}
330
260
100
AcDbXrecord
280
     1
102
RTVSPropertyOp0
 70
     1
102
RTVSPropertyOp1
 70
     1
102
RTVSPropertyOp2
 70
     1
102
RTVSPropertyOp3
 70
     1
102
RTVSPropertyOp4
 70
     1
102
RTVSPropertyOp5
 70
     1
102
RTVSPropertyOp6
 70
     1
102
RTVSPropertyOp7
 70
     1
102
RTVSPropertyOp8
 70
     1
102
RTVSPropertyOp9
 70
     1
102
RTVSPropertyOp10
 70
     1
102
RTVSPropertyOp11
 70
     1
102
RTVSPropertyOp12
 70
     1
102
RTVSPropertyOp13
 70
     1
102
RTVSPropertyOp14
 70
     1
102
RTVSPropertyOp15
 70
     1
102
RTVSPropertyOp16
 70
     1
102
RTVSPropertyOp17
 70
     1
102
RTVSPropertyOp18
 70
     1
102
RTVSPropertyOp19
 70
     1
102
RTVSPropertyOp20
 70
     1
102
RTVSPropertyOp21
 70
     1
102
RTVSPropertyOp22
 70
     1
102
RTVSPropertyOp23
 70
     1
102
RTVSPropertyOp24
 70
     1
102
RTVSPropertyOp25
 70
     1
102
RTVSPropertyOp26
 70
     1
102
RTVSPropertyOp27
 70
     1
102
RTVSPropertyOp28
 70
     1
102
RTVSPropertyOp29
 70
     1
102
RTVSPropertyOp30
 70
     1
102
RTVSPropertyOp31
 70
     1
102
RTVSPropertyOp32
 70
     1
  0
XRECORD
  5
263
102
{ACAD_REACTORS
330
262
102
}
330
262
100
AcDbXrecord
280
     1
102
RTVSPropertyOp0
 70
     1
102
RTVSPropertyOp1
 70
     1
102
RTVSPropertyOp2
 70
     1
102
RTVSPropertyOp3
 70
     1
102
RTVSPropertyOp4
 70
     1
102
RTVSPropertyOp5
 70
     1
102
RTVSPropertyOp6
 70
     1
102
RTVSPropertyOp7
 70
     1
102
RTVSPropertyOp8
 70
     1
102
RTVSPropertyOp9
 70
     1
102
RTVSPropertyOp10
 70
     1
102
RTVSPropertyOp11
 70
     1
102
RTVSPropertyOp12
 70
     1
102
RTVSPropertyOp13
 70
     1
102
RTVSPropertyOp14
 70
     1
102
RTVSPropertyOp15
 70
     1
102
RTVSPropertyOp16
 70
     1
102
RTVSPropertyOp17
 70
     1
102
RTVSPropertyOp18
 70
     1
102
RTVSPropertyOp19
 70
     1
102
RTVSPropertyOp20
 70
     1
102
RTVSPropertyOp21
 70
     1
102
RTVSPropertyOp22
 70
     1
102
RTVSPropertyOp23
 70
     1
102
RTVSPropertyOp24
 70
     1
102
RTVSPropertyOp25
 70
     1
102
RTVSPropertyOp26
 70
     1
102
RTVSPropertyOp27
 70
     1
102
RTVSPropertyOp28
 70
     1
102
RTVSPropertyOp29
 70
     1
102
RTVSPropertyOp30
 70
     1
102
RTVSPropertyOp31
 70
     1
102
RTVSPropertyOp32
 70
     1
  0
XRECORD
  5
26B
102
{ACAD_REACTORS
330
26A
102
}
330
26A
100
AcDbXrecord
280
     1
102
RTVSPropertyOp0
 70
     1
102
RTVSPropertyOp1
 70
     1
102
RTVSPropertyOp2
 70
     1
102
RTVSPropertyOp3
 70
     1
102
RTVSPropertyOp4
 70
     1
102
RTVSPropertyOp5
 70
     1
102
RTVSPropertyOp6
 70
     1
102
RTVSPropertyOp7
 70
     1
102
RTVSPropertyOp8
 70
     1
102
RTVSPropertyOp9
 70
     1
102
RTVSPropertyOp10
 70
     1
102
RTVSPropertyOp11
 70
     1
102
RTVSPropertyOp12
 70
     1
102
RTVSPropertyOp13
 70
     1
102
RTVSPropertyOp14
 70
     1
102
RTVSPropertyOp15
 70
     1
102
RTVSPropertyOp16
 70
     1
102
RTVSPropertyOp17
 70
     1
102
RTVSPropertyOp18
 70
     1
102
RTVSPropertyOp19
 70
     1
102
RTVSPropertyOp20
 70
     1
102
RTVSPropertyOp21
 70
     1
102
RTVSPropertyOp22
 70
     1
102
RTVSPropertyOp23
 70
     1
102
RTVSPropertyOp24
 70
     1
102
RTVSPropertyOp25
 70
     1
102
RTVSPropertyOp26
 70
     1
102
RTVSPropertyOp27
 70
     1
102
RTVSPropertyOp28
 70
     1
102
RTVSPropertyOp29
 70
     1
102
RTVSPropertyOp30
 70
     1
102
RTVSPropertyOp31
 70
     1
102
RTVSPropertyOp32
 70
     1
  0
XRECORD
  5
24F
102
{ACAD_REACTORS
330
24E
102
}
330
24E
100
AcDbXrecord
280
     1
102
RTVSPropertyOp0
 70
     1
102
RTVSPropertyOp1
 70
     1
102
RTVSPropertyOp2
 70
     1
102
RTVSPropertyOp3
 70
     1
102
RTVSPropertyOp4
 70
     1
102
RTVSPropertyOp5
 70
     1
102
RTVSPropertyOp6
 70
     1
102
RTVSPropertyOp7
 70
     1
102
RTVSPropertyOp8
 70
     1
102
RTVSPropertyOp9
 70
     1
102
RTVSPropertyOp10
 70
     1
102
RTVSPropertyOp11
 70
     1
102
RTVSPropertyOp12
 70
     1
102
RTVSPropertyOp13
 70
     1
102
RTVSPropertyOp14
 70
     1
102
RTVSPropertyOp15
 70
     1
102
RTVSPropertyOp16
 70
     1
102
RTVSPropertyOp17
 70
     1
102
RTVSPropertyOp18
 70
     1
102
RTVSPropertyOp19
 70
     1
102
RTVSPropertyOp20
 70
     1
102
RTVSPropertyOp21
 70
     1
102
RTVSPropertyOp22
 70
     1
102
RTVSPropertyOp23
 70
     1
102
RTVSPropertyOp24
 70
     1
102
RTVSPropertyOp25
 70
     1
102
RTVSPropertyOp26
 70
     1
102
RTVSPropertyOp27
 70
     1
102
RTVSPropertyOp28
 70
     1
102
RTVSPropertyOp29
 70
     1
102
RTVSPropertyOp30
 70
     1
102
RTVSPropertyOp31
 70
     1
102
RTVSPropertyOp32
 70
     1
  0
XRECORD
  5
251
102
{ACAD_REACTORS
330
250
102
}
330
250
100
AcDbXrecord
280
     1
102
RTVSPropertyOp0
 70
     1
102
RTVSPropertyOp1
 70
     1
102
RTVSPropertyOp2
 70
     1
102
RTVSPropertyOp3
 70
     1
102
RTVSPropertyOp4
 70
     1
102
RTVSPropertyOp5
 70
     1
102
RTVSPropertyOp6
 70
     1
102
RTVSPropertyOp7
 70
     1
102
RTVSPropertyOp8
 70
     1
102
RTVSPropertyOp9
 70
     1
102
RTVSPropertyOp10
 70
     1
102
RTVSPropertyOp11
 70
     1
102
RTVSPropertyOp12
 70
     1
102
RTVSPropertyOp13
 70
     1
102
RTVSPropertyOp14
 70
     1
102
RTVSPropertyOp15
 70
     1
102
RTVSPropertyOp16
 70
     1
102
RTVSPropertyOp17
 70
     1
102
RTVSPropertyOp18
 70
     1
102
RTVSPropertyOp19
 70
     1
102
RTVSPropertyOp20
 70
     1
102
RTVSPropertyOp21
 70
     1
102
RTVSPropertyOp22
 70
     1
102
RTVSPropertyOp23
 70
     1
102
RTVSPropertyOp24
 70
     1
102
RTVSPropertyOp25
 70
     1
102
RTVSPropertyOp26
 70
     1
102
RTVSPropertyOp27
 70
     1
102
RTVSPropertyOp28
 70
     1
102
RTVSPropertyOp29
 70
     1
102
RTVSPropertyOp30
 70
     1
102
RTVSPropertyOp31
 70
     1
102
RTVSPropertyOp32
 70
     1
  0
XRECORD
  5
253
102
{ACAD_REACTORS
330
252
102
}
330
252
100
AcDbXrecord
280
     1
102
RTVSPropertyOp0
 70
     1
102
RTVSPropertyOp1
 70
     1
102
RTVSPropertyOp2
 70
     1
102
RTVSPropertyOp3
 70
     1
102
RTVSPropertyOp4
 70
     1
102
RTVSPropertyOp5
 70
     1
102
RTVSPropertyOp6
 70
     1
102
RTVSPropertyOp7
 70
     1
102
RTVSPropertyOp8
 70
     1
102
RTVSPropertyOp9
 70
     1
102
RTVSPropertyOp10
 70
     1
102
RTVSPropertyOp11
 70
     1
102
RTVSPropertyOp12
 70
     1
102
RTVSPropertyOp13
 70
     1
102
RTVSPropertyOp14
 70
     1
102
RTVSPropertyOp15
 70
     1
102
RTVSPropertyOp16
 70
     1
102
RTVSPropertyOp17
 70
     1
102
RTVSPropertyOp18
 70
     1
102
RTVSPropertyOp19
 70
     1
102
RTVSPropertyOp20
 70
     1
102
RTVSPropertyOp21
 70
     1
102
RTVSPropertyOp22
 70
     1
102
RTVSPropertyOp23
 70
     1
102
RTVSPropertyOp24
 70
     1
102
RTVSPropertyOp25
 70
     1
102
RTVSPropertyOp26
 70
     1
102
RTVSPropertyOp27
 70
     1
102
RTVSPropertyOp28
 70
     1
102
RTVSPropertyOp29
 70
     1
102
RTVSPropertyOp30
 70
     1
102
RTVSPropertyOp31
 70
     1
102
RTVSPropertyOp32
 70
     1
  0
XRECORD
  5
255
102
{ACAD_REACTORS
330
254
102
}
330
254
100
AcDbXrecord
280
     1
102
RTVSPropertyOp0
 70
     1
102
RTVSPropertyOp1
 70
     1
102
RTVSPropertyOp2
 70
     1
102
RTVSPropertyOp3
 70
     1
102
RTVSPropertyOp4
 70
     1
102
RTVSPropertyOp5
 70
     1
102
RTVSPropertyOp6
 70
     1
102
RTVSPropertyOp7
 70
     1
102
RTVSPropertyOp8
 70
     1
102
RTVSPropertyOp9
 70
     1
102
RTVSPropertyOp10
 70
     1
102
RTVSPropertyOp11
 70
     1
102
RTVSPropertyOp12
 70
     1
102
RTVSPropertyOp13
 70
     1
102
RTVSPropertyOp14
 70
     1
102
RTVSPropertyOp15
 70
     1
102
RTVSPropertyOp16
 70
     1
102
RTVSPropertyOp17
 70
     1
102
RTVSPropertyOp18
 70
     1
102
RTVSPropertyOp19
 70
     1
102
RTVSPropertyOp20
 70
     1
102
RTVSPropertyOp21
 70
     1
102
RTVSPropertyOp22
 70
     1
102
RTVSPropertyOp23
 70
     1
102
RTVSPropertyOp24
 70
     1
102
RTVSPropertyOp25
 70
     1
102
RTVSPropertyOp26
 70
     1
102
RTVSPropertyOp27
 70
     1
102
RTVSPropertyOp28
 70
     1
102
RTVSPropertyOp29
 70
     1
102
RTVSPropertyOp30
 70
     1
102
RTVSPropertyOp31
 70
     1
102
RTVSPropertyOp32
 70
     1
  0
XRECORD
  5
269
102
{ACAD_REACTORS
330
268
102
}
330
268
100
AcDbXrecord
280
     1
102
RTVSPropertyOp0
 70
     1
102
RTVSPropertyOp1
 70
     1
102
RTVSPropertyOp2
 70
     1
102
RTVSPropertyOp3
 70
     1
102
RTVSPropertyOp4
 70
     1
102
RTVSPropertyOp5
 70
     1
102
RTVSPropertyOp6
 70
     1
102
RTVSPropertyOp7
 70
     1
102
RTVSPropertyOp8
 70
     1
102
RTVSPropertyOp9
 70
     1
102
RTVSPropertyOp10
 70
     1
102
RTVSPropertyOp11
 70
     1
102
RTVSPropertyOp12
 70
     1
102
RTVSPropertyOp13
 70
     1
102
RTVSPropertyOp14
 70
     1
102
RTVSPropertyOp15
 70
     1
102
RTVSPropertyOp16
 70
     1
102
RTVSPropertyOp17
 70
     1
102
RTVSPropertyOp18
 70
     1
102
RTVSPropertyOp19
 70
     1
102
RTVSPropertyOp20
 70
     1
102
RTVSPropertyOp21
 70
     1
102
RTVSPropertyOp22
 70
     1
102
RTVSPropertyOp23
 70
     1
102
RTVSPropertyOp24
 70
     1
102
RTVSPropertyOp25
 70
     1
102
RTVSPropertyOp26
 70
     1
102
RTVSPropertyOp27
 70
     1
102
RTVSPropertyOp28
 70
     1
102
RTVSPropertyOp29
 70
     1
102
RTVSPropertyOp30
 70
     1
102
RTVSPropertyOp31
 70
     1
102
RTVSPropertyOp32
 70
     1
  0
XRECORD
  5
25F
102
{ACAD_REACTORS
330
25E
102
}
330
25E
100
AcDbXrecord
280
     1
102
RTVSPropertyOp0
 70
     1
102
RTVSPropertyOp1
 70
     1
102
RTVSPropertyOp2
 70
     1
102
RTVSPropertyOp3
 70
     1
102
RTVSPropertyOp4
 70
     1
102
RTVSPropertyOp5
 70
     1
102
RTVSPropertyOp6
 70
     1
102
RTVSPropertyOp7
 70
     1
102
RTVSPropertyOp8
 70
     1
102
RTVSPropertyOp9
 70
     1
102
RTVSPropertyOp10
 70
     1
102
RTVSPropertyOp11
 70
     1
102
RTVSPropertyOp12
 70
     1
102
RTVSPropertyOp13
 70
     1
102
RTVSPropertyOp14
 70
     1
102
RTVSPropertyOp15
 70
     1
102
RTVSPropertyOp16
 70
     1
102
RTVSPropertyOp17
 70
     1
102
RTVSPropertyOp18
 70
     1
102
RTVSPropertyOp19
 70
     1
102
RTVSPropertyOp20
 70
     1
102
RTVSPropertyOp21
 70
     1
102
RTVSPropertyOp22
 70
     1
102
RTVSPropertyOp23
 70
     1
102
RTVSPropertyOp24
 70
     1
102
RTVSPropertyOp25
 70
     1
102
RTVSPropertyOp26
 70
     1
102
RTVSPropertyOp27
 70
     1
102
RTVSPropertyOp28
 70
     1
102
RTVSPropertyOp29
 70
     1
102
RTVSPropertyOp30
 70
     1
102
RTVSPropertyOp31
 70
     1
102
RTVSPropertyOp32
 70
     1
  0
XRECORD
  5
267
102
{ACAD_REACTORS
330
266
102
}
330
266
100
AcDbXrecord
280
     1
102
RTVSPropertyOp0
 70
     1
102
RTVSPropertyOp1
 70
     1
102
RTVSPropertyOp2
 70
     1
102
RTVSPropertyOp3
 70
     1
102
RTVSPropertyOp4
 70
     1
102
RTVSPropertyOp5
 70
     1
102
RTVSPropertyOp6
 70
     1
102
RTVSPropertyOp7
 70
     1
102
RTVSPropertyOp8
 70
     1
102
RTVSPropertyOp9
 70
     1
102
RTVSPropertyOp10
 70
     1
102
RTVSPropertyOp11
 70
     1
102
RTVSPropertyOp12
 70
     1
102
RTVSPropertyOp13
 70
     1
102
RTVSPropertyOp14
 70
     1
102
RTVSPropertyOp15
 70
     1
102
RTVSPropertyOp16
 70
     1
102
RTVSPropertyOp17
 70
     1
102
RTVSPropertyOp18
 70
     1
102
RTVSPropertyOp19
 70
     1
102
RTVSPropertyOp20
 70
     1
102
RTVSPropertyOp21
 70
     1
102
RTVSPropertyOp22
 70
     1
102
RTVSPropertyOp23
 70
     1
102
RTVSPropertyOp24
 70
     1
102
RTVSPropertyOp25
 70
     1
102
RTVSPropertyOp26
 70
     1
102
RTVSPropertyOp27
 70
     1
102
RTVSPropertyOp28
 70
     1
102
RTVSPropertyOp29
 70
     1
102
RTVSPropertyOp30
 70
     1
102
RTVSPropertyOp31
 70
     1
102
RTVSPropertyOp32
 70
     1
  0
ENDSEC
  0
EOF
